(Traditional Folk Music, l. Auvidis, UNESCO Collection) [CD] VA - Songs of the Earth: Astonishing and Rare Voices / Chants de la terre: Voix surprenantes et rares - 1998 (1955), FLAC (tracks+.cue), lossless

Ответить на тему
Статистика раздачи
Размер:  311 MB   |    Зарегистрирован:  11 месяцев 22 дня   |    Скачан:  0 раз

Полного источника не было: 48 минут

 
   
 
 
Автор Сообщение

star21 ®

Пол: Женский

Стаж: 3 года 10 месяцев

Сообщений: 551989

Откуда: Екатеринбург

Создавать темы 26-Сен-2018 12:50

[Цитировать]

"Songs of the Earth: Astonishing and Rare Voices"
Various Artists ~ 1955Издатель: Auvidis (UNESCO Collection) ~ D 8104 ~ France ~ 1998
Жанр альбома: Traditional Folk MusicАудио данные: FLAC (*.flac) ~ lossless ~ tracks+.cue ~ CD
Сканы в содержимом раздачи есть [pdf]
Источник: redacted.chТреклист
01. INDIA: Mohin ud din Dagar & Amin ud din Dagar
- Khyal [extract] (05:11)
02. BALI: singers of Peliatan
- Tjak [extract] (02:07)
03. JAPAN: unidentified artists
- Upopo (02:11)
04. MONGOLIA: Sundui
- The 4-Year-Old Light Tan Horse (01:51)
05. UZBEKISTAN: Nazira Bāïjanova
- Yār-Yār [extract] (02:21)
06. SYRIA: Rifa'iyya Brotherhood of Aleppo
- Islamic Ritual Zikr [extract] (03:28)
07. SYRIA: Evelyne Daoud
- Takhshefto (Like the Merchants) (04:51)
08. UKRAINE: Rosa Jouk, Lioudmilla Tchijouk & Maria Dorodko
- The Red Mountain Ash (02:14)
09. BYELORUSSIA: Tatiana Orlenin & Nadeshda Shogol
- Round (spring dance) (02:09)
10. BULGARIA: Ianka Rupkina & Stoian Vielichkov
- Slow Melody (03:58)
11. SWITZERLAND: Ernst Pfändler
- Zäuerli (Sung in the Inn) (02:21)
12. CANADA: Elijah Pudloo Mageeta, Qaunak Martha Meekeega, Napache Samaejuk Pootoogook & Napache Etidloie Toonoo
- Three Katajjait From Baffin Land (02:05)
13. SOLOMON ISLANDS: choir of eight Baegu women
- Roiroa (women's song) (02:38)
14. MALAWI: girls from the Ntcheu district & Ngoni singer
- Byeni: Kamwana kamwini (Somebody's Little Child) / Kaya wiyo (Who Cares) (04:14)
15. SUDAN: Gumuz musicians
- Nagara (Music of the Blue Nile Province) (02:34)
16. Central African Republic: Aka pygmy singers
- Dikoboda sombe (hut song) (03:57)
17. Central African Republic: Mvrele ensemble
- Ulepa (04:25)
18. Central African Republic: five Banda-Linda elders
- Ye zame andero (war chant) (02:52)
19. BENIN: two young Somba girls
- Song for Grinding Millet [extract] (03:00)время звучания (00:58:19)

eac

Exact Audio Copy V1.3 from 2. September 2016EAC extraction logfile from 17. January 2017, 23:24- / Songs of the Earth (Astonishing and Rare Voices)Used drive  : ATAPI   iHAS124   W   Adapter: 1  ID: 0Read mode               : SecureUtilize accurate stream : YesDefeat audio cache      : YesMake use of C2 pointers : NoRead offset correction                      : 48Overread into Lead-In and Lead-Out          : NoFill up missing offset samples with silence : YesDelete leading and trailing silent blocks   : NoNull samples used in CRC calculations       : YesUsed interface                              : Native Win32 interface for Win NT & 2000Gap handling                                : Appended to previous trackUsed output format              : User Defined EncoderSelected bitrate                : 1024 kBit/sQuality                         : HighAdd ID3 tag                     : NoCommand line compressor         : C:\Program Files (x86)\FLAC Frontend\tools\flac.exeAdditional command line options : -8 -V -T "ARTIST=%artist%" -T "TITLE=%title%" -T "ALBUM=%albumtitle%" -T "DATE=%year%" -T "TRACKNUMBER=%tracknr%" -T "DISCNUMBER=%cdnumber%" %source% -o %dest%TOC of the extracted CD     Track |   Start  |  Length  | Start sector | End sector    ---------------------------------------------------------        1  |  0:00.00 |  5:10.02 |         0    |    23251        2  |  5:10.02 |  2:06.61 |     23252    |    32762        3  |  7:16.63 |  2:10.55 |     32763    |    42567        4  |  9:27.43 |  1:50.34 |     42568    |    50851        5  | 11:18.02 |  2:20.31 |     50852    |    61382        6  | 13:38.33 |  3:28.00 |     61383    |    76982        7  | 17:06.33 |  4:50.52 |     76983    |    98784        8  | 21:57.10 |  2:13.30 |     98785    |   108789        9  | 24:10.40 |  2:08.27 |    108790    |   118416       10  | 26:18.67 |  3:57.56 |    118417    |   136247       11  | 30:16.48 |  2:20.54 |    136248    |   146801       12  | 32:37.27 |  2:04.10 |    146802    |   156111       13  | 34:41.37 |  2:37.33 |    156112    |   167919       14  | 37:18.70 |  4:13.06 |    167920    |   186900       15  | 41:32.01 |  2:33.65 |    186901    |   198440       16  | 44:05.66 |  3:56.09 |    198441    |   216149       17  | 48:02.00 |  4:24.58 |    216150    |   236007       18  | 52:26.58 |  2:51.63 |    236008    |   248895       19  | 55:18.46 |  2:59.57 |    248896    |   262377Track  1     Filename H:\#flac rips\1-01 Mohin ud din Dagar & Amin ud din Dagar - Khyal (Extract) (India).wav     Pre-gap length  0:00:02.00     Peak level 100.0 %     Extraction speed 1.9 X     Track quality 100.0 %     Test CRC 23EB1AFC     Copy CRC 23EB1AFC     Track not present in AccurateRip database     Copy OKTrack  2     Filename H:\#flac rips\1-02 Singers of Peliatan - Tjak (Extract) (Bali).wav     Pre-gap length  0:00:04.66     Peak level 100.0 %     Extraction speed 1.5 X     Track quality 99.9 %     Test CRC 72CE99C1     Copy CRC 72CE99C1     Track not present in AccurateRip database     Copy OKTrack  3     Filename H:\#flac rips\1-03 Kiyo Kurokawa & Teru Nishizama - Upopo (Japan).wav     Pre-gap length  0:00:04.66     Peak level 100.0 %     Extraction speed 1.9 X     Track quality 100.0 %     Test CRC 409AD075     Copy CRC 409AD075     Track not present in AccurateRip database     Copy OKTrack  4     Filename H:\#flac rips\1-04 Sundui - The 4-Year-Old Light Tan Horse (Mongolia).wav     Pre-gap length  0:00:04.66     Peak level 99.9 %     Extraction speed 1.9 X     Track quality 100.0 %     Test CRC 9711A30A     Copy CRC 9711A30A     Track not present in AccurateRip database     Copy OKTrack  5     Filename H:\#flac rips\1-05 Nazira Bāïjanova - Yār-Yār (Extract) (Uzbekistan).wav     Pre-gap length  0:00:04.66     Peak level 94.5 %     Extraction speed 1.7 X     Track quality 99.9 %     Test CRC 30D204E3     Copy CRC 30D204E3     Track not present in AccurateRip database     Copy OKTrack  6     Filename H:\#flac rips\1-06 Rifa'iyya Brotherhood of Aleppo - Islamic Ritual Zikr (Extract) (Syria).wav     Pre-gap length  0:00:04.66     Peak level 100.0 %     Extraction speed 2.4 X     Track quality 100.0 %     Test CRC 33C917B6     Copy CRC 33C917B6     Track not present in AccurateRip database     Copy OKTrack  7     Filename H:\#flac rips\1-07 Evelyne Daoud - Takhshefto (Like the Merchants) (Syria).wav     Pre-gap length  0:00:04.66     Peak level 89.7 %     Extraction speed 2.6 X     Track quality 100.0 %     Test CRC 15A3BE65     Copy CRC 15A3BE65     Track not present in AccurateRip database     Copy OKTrack  8     Filename H:\#flac rips\1-08 Rosa Jouk, Lioudmilla Tchijouk & Maria Dorodko - The Red Mountain Ash (Ukraine).wav     Pre-gap length  0:00:04.66     Peak level 100.0 %     Extraction speed 2.4 X     Track quality 100.0 %     Test CRC 458827B4     Copy CRC 458827B4     Track not present in AccurateRip database     Copy OKTrack  9     Filename H:\#flac rips\1-09 Tatiana Orlenin & Nadeshda Shogol - Round_ Sping Dance (Byelorussia).wav     Pre-gap length  0:00:04.66     Peak level 100.0 %     Extraction speed 2.5 X     Track quality 100.0 %     Test CRC 1CFA9847     Copy CRC 1CFA9847     Track not present in AccurateRip database     Copy OKTrack 10     Filename H:\#flac rips\1-10 Ianka Rupkina & Stoian Vielichkov - Slow Melody (Bulgaria).wav     Pre-gap length  0:00:04.66     Peak level 97.2 %     Extraction speed 2.9 X     Track quality 100.0 %     Test CRC D05C8B36     Copy CRC D05C8B36     Track not present in AccurateRip database     Copy OKTrack 11     Filename H:\#flac rips\1-11 Ernst Pfändler - Zäuerli (Switzerland).wav     Pre-gap length  0:00:04.66     Peak level 100.0 %     Extraction speed 2.3 X     Track quality 99.9 %     Test CRC A93C19A8     Copy CRC A93C19A8     Track not present in AccurateRip database     Copy OKTrack 12     Filename H:\#flac rips\1-12 Elijah Pudloo Mageeta, Qaunak Martha Meekeega, Napache Samaejuk Pootoogook & Napache Etidloie Toonoo - Three Katajjait from Baffin Land (Canada).wav     Pre-gap length  0:00:04.66     Peak level 80.7 %     Extraction speed 2.2 X     Track quality 99.9 %     Test CRC F56ED76C     Copy CRC F56ED76C     Track not present in AccurateRip database     Copy OKTrack 13     Filename H:\#flac rips\1-13 Choir of eight Baegu women - Roiroa (Women's Song) (Solomon Islands).wav     Pre-gap length  0:00:04.66     Peak level 87.4 %     Extraction speed 2.9 X     Track quality 100.0 %     Test CRC B19DC2F3     Copy CRC B19DC2F3     Track not present in AccurateRip database     Copy OKTrack 14     Filename H:\#flac rips\1-14 Girls from the Ntcheu district & Ngoni singer - Kamwana kamwini (Somebody's Little Child) , Kaya wiyo (Who Cares) (Malawi).wav     Pre-gap length  0:00:04.66     Peak level 100.0 %     Extraction speed 3.2 X     Track quality 100.0 %     Test CRC ABA484E5     Copy CRC ABA484E5     Track not present in AccurateRip database     Copy OKTrack 15     Filename H:\#flac rips\1-15 The Gumuz tribe - Nagara - Music of the Blue Nile Province (Sudan).wav     Pre-gap length  0:00:04.66     Peak level 100.0 %     Extraction speed 3.1 X     Track quality 100.0 %     Test CRC 397317DD     Copy CRC 397317DD     Track not present in AccurateRip database     Copy OKTrack 16     Filename H:\#flac rips\1-16 Aka Pygmy singers - Dikoboda sombe (Hut Song) (Central African Republic).wav     Pre-gap length  0:00:04.66     Peak level 100.0 %     Extraction speed 3.4 X     Track quality 100.0 %     Test CRC DDD4B04E     Copy CRC DDD4B04E     Track not present in AccurateRip database     Copy OKTrack 17     Filename H:\#flac rips\1-17 Mvrele ensemble - Ulepa (Centra African Republic).wav     Pre-gap length  0:00:04.66     Peak level 100.0 %     Extraction speed 3.6 X     Track quality 100.0 %     Test CRC DE3C2875     Copy CRC DE3C2875     Track not present in AccurateRip database     Copy OKTrack 18     Filename H:\#flac rips\1-18 Five Banda-Linda elders - Ye zame andero (War Chant) (Centra African Republic).wav     Pre-gap length  0:00:04.66     Peak level 100.0 %     Extraction speed 3.4 X     Track quality 100.0 %     Test CRC BE994979     Copy CRC BE994979     Track not present in AccurateRip database     Copy OKTrack 19     Filename H:\#flac rips\1-19 Two young Somba girls - Song for Grinding Millet (Extract) (Benin).wav     Pre-gap length  0:00:04.66     Peak level 98.1 %     Extraction speed 3.5 X     Track quality 100.0 %     Test CRC 7AC8C234     Copy CRC 7AC8C234     Track not present in AccurateRip database     Copy OKNone of the tracks are present in the AccurateRip databaseNo errors occurredEnd of status report---- CUETools DB Plugin V2.1.6[CTDB TOCID: KYtq.FEnCRkucUkXBP2jz6rgEys-] disk not present in databaseSubmit result: KYtq.FEnCRkucUkXBP2jz6rgEys- has been uploaded==== Log checksum 0775775F40CD125E1968EEE2ED6DFC162B4E36C4271A42289E5FC966FD6BD1CF ====

cue

REM GENRE "Traditional Folk Music"REM DATE 1955REM DISCID 0A0DAA13REM COMMENT "ExactAudioCopy v1.3"PERFORMER "Various Artists"TITLE "Songs of the Earth: Astonishing and Rare Voices"FILE "01. INDIA: Mohin ud din Dagar & Amin ud din Dagar - Khyal [extract].wav" WAVE  TRACK 01 AUDIO    TITLE "Khyal [extract]"    PERFORMER "INDIA: Mohin ud din Dagar & Amin ud din Dagar"    INDEX 01 00:00:00  TRACK 02 AUDIO    TITLE "Tjak [extract]"    PERFORMER "BALI: singers of Peliatan"    INDEX 00 05:05:27FILE "02. BALI: singers of Peliatan - Tjak [extract].wav" WAVE    INDEX 01 00:00:00  TRACK 03 AUDIO    TITLE "Upopo"    PERFORMER "JAPAN: unidentified artists"    INDEX 00 02:02:11FILE "03. JAPAN: unidentified artists - Upopo.wav" WAVE    INDEX 01 00:00:00  TRACK 04 AUDIO    TITLE "The 4-Year-Old Light Tan Horse"    PERFORMER "MONGOLIA: Sundui"    INDEX 00 02:06:05FILE "04. MONGOLIA: Sundui - The 4-Year-Old Light Tan Horse.wav" WAVE    INDEX 01 00:00:00  TRACK 05 AUDIO    TITLE "Yār-Yār [extract]"    PERFORMER "UZBEKISTAN: Nazira Bāïjanova"    INDEX 00 01:45:59FILE "05. UZBEKISTAN: Nazira Bāïjanova - Yār-Yār [extract].wav" WAVE    INDEX 01 00:00:00  TRACK 06 AUDIO    TITLE "Islamic Ritual Zikr [extract]"    PERFORMER "SYRIA: Rifa'iyya Brotherhood of Aleppo"    INDEX 00 02:15:56FILE "06. SYRIA: Rifa'iyya Brotherhood of Aleppo - Islamic Ritual Zikr [extract].wav" WAVE    INDEX 01 00:00:00  TRACK 07 AUDIO    TITLE "Takhshefto (Like the Merchants)"    PERFORMER "SYRIA: Evelyne Daoud"    INDEX 00 03:23:25FILE "07. SYRIA: Evelyne Daoud - Takhshefto (Like the Merchants).wav" WAVE    INDEX 01 00:00:00  TRACK 08 AUDIO    TITLE "The Red Mountain Ash"    PERFORMER "UKRAINE: Rosa Jouk, Lioudmilla Tchijouk & Maria Dorodko"    INDEX 00 04:46:02FILE "08. UKRAINE: Rosa Jouk, Lioudmilla Tchijouk & Maria Dorodko - The Red Mountain Ash.wav" WAVE    INDEX 01 00:00:00  TRACK 09 AUDIO    TITLE "Round (spring dance)"    PERFORMER "BYELORUSSIA: Tatiana Orlenin & Nadeshda Shogol"    INDEX 00 02:08:55FILE "09. BYELORUSSIA: Tatiana Orlenin & Nadeshda Shogol - Round (spring dance).wav" WAVE    INDEX 01 00:00:00  TRACK 10 AUDIO    TITLE "Slow Melody"    PERFORMER "BULGARIA: Ianka Rupkina & Stoian Vielichkov"    INDEX 00 02:03:52FILE "10. BULGARIA: Ianka Rupkina & Stoian Vielichkov - Slow Melody.wav" WAVE    INDEX 01 00:00:00  TRACK 11 AUDIO    TITLE "Zäuerli (Sung in the Inn)"    PERFORMER "SWITZERLAND: Ernst Pfändler"    INDEX 00 03:53:06FILE "11. SWITZERLAND: Ernst Pfändler - Zäuerli (Sung in the Inn).wav" WAVE    INDEX 01 00:00:00  TRACK 12 AUDIO    TITLE "Three Katajjait From Baffin Land"    PERFORMER "CANADA: Elijah Pudloo Mageeta, Qaunak Martha Meekeega, Napache Samaejuk Pootoogook & Napache Etidloie Toonoo"    INDEX 00 02:16:04FILE "12. CANADA: various artists - Three Katajjait From Baffin Land.wav" WAVE    INDEX 01 00:00:00  TRACK 13 AUDIO    TITLE "Roiroa (women's song)"    PERFORMER "SOLOMON ISLANDS: choir of eight Baegu women"    INDEX 00 01:59:35FILE "13. SOLOMON ISLANDS: choir of eight Baegu women - Roiroa (women's song).wav" WAVE    INDEX 01 00:00:00  TRACK 14 AUDIO    TITLE "Byeni: Kamwana kamwini (Somebody's Little Child) / Kaya wiyo (Who Cares)"    PERFORMER "MALAWI: girls from the Ntcheu district & Ngoni singer"    INDEX 00 02:32:58FILE "14. MALAWI: girls from the Ntcheu district & Ngoni singer - Byeni&#65306 Kamwana kamwini / Kaya wiyo.wav" WAVE    INDEX 01 00:00:00  TRACK 15 AUDIO    TITLE "Nagara (Music of the Blue Nile Province)"    PERFORMER "SUDAN: Gumuz musicians"    INDEX 00 04:08:31FILE "15. SUDAN: Gumuz musicians - Nagara (Music of the Blue Nile Province).wav" WAVE    INDEX 01 00:00:00  TRACK 16 AUDIO    TITLE "Dikoboda sombe (hut song)"    PERFORMER "Central African Republic: Aka pygmy singers"    INDEX 00 02:29:15FILE "16. CAR: Aka pygmy singers - Dikoboda sombe (hut song).wav" WAVE    INDEX 01 00:00:00  TRACK 17 AUDIO    TITLE "Ulepa"    PERFORMER "Central African Republic: Mvrele ensemble"    INDEX 00 03:51:34FILE "17. CAR: Mvrele ensemble - Ulepa.wav" WAVE    INDEX 01 00:00:00  TRACK 18 AUDIO    TITLE "Ye zame andero (war chant)"    PERFORMER "Central African Republic: five Banda-Linda elders"    INDEX 00 04:20:08FILE "18. CAR: five Banda-Linda elders - Ye zame andero (war chant).wav" WAVE    INDEX 01 00:00:00  TRACK 19 AUDIO    TITLE "Song for Grinding Millet [extract]"    PERFORMER "BENIN: two young Somba girls"    INDEX 00 02:47:13FILE "19. BENIN: two young Somba girls - Song for Grinding Millet [extract].wav" WAVE    INDEX 01 00:00:00

info

  • The human voice is not only the world’s oldest musical instrument, but also the most portable, and it can be used in countless ways. This compilation of songs provides nineteen diverse examples.
  • Selected from across Asia, the Middle East, Europe, North America, Oceania, and Africa, these recordings represent unique vocal arts traditions, including Mongolian overtone singing, Swiss yodeling, an Inuit repetition-based singing game, and Sudanese call-and-response. With songs about love and war, music for religious ceremony and entertainment, and performances that range from quiet soloists to a raucous 250-person vocal percussion ensemble, the album shows the versatility of the human voice as an instrument.
  • This album is part of the UNESCO Collection of Traditional Music. More than 125 albums are being released by Smithsonian Folkways Recordings to make the series publicly available, including a dozen never-released albums of musical traditions from around the globe.

Чтобы скачать этот контент, Вам необходимо:
1. Скачать и установить торрент-клиент [клик для Windows], (для мобильного найдите на Play Маркет).
2. Кликнуть по [Скачать]


Внимание.
Если проверка ВЫ НЕ РОБОТ - не работает, значит Вы используете устаревший браузер.
Установите актуальный браузер и повторно кликните по [Скачать]
Безопасность: торрент-клиент разрешён АВ Касперского.

[asmlocator.ru].t571320.torrent 
Торрент: Зарегистрирован [ 2018-09-26 12:50 ] · 54C53B88A6C02A6F8FAAB3117D5FB6D47BFF24D2

Скачать .torrent

Скачать

15 KB

Статус: проверено
Скачан: 0 раз
Размер: 311 MB
terms.php
[Профиль] [ЛС]
Показать сообщения:    
Ответить на тему

Текущее время: 18-Сен 14:38

Часовой пояс: UTC ± 0



Вы не можете начинать темы
Вы не можете отвечать на сообщения
Вы не можете редактировать свои сообщения
Вы не можете удалять свои сообщения
Вы не можете голосовать в опросах
Вы не можете прикреплять файлы к сообщениям
Вы можете скачивать файлы
Верим фактам, а не вранью Путина! Факт, что Правительство ведёт Россию к истреблению.
Так как численность населения падает, даже не смотря на приток эмигрантов!
Русская нация вымирает и вырождается, смешиваясь с эмигрантами!
Факт, что военных и граждан предприятий заставляют голосовать за партию Единая Россия и Путина
ПОД СТРАХОМ УВОЛЬНЕНИЯ!
Нам не нужно Правительство, блокирующее личную жизнь, интернет, нарушающее сохранность данных.
Все эти действия финансируются за счёт народа!