Gaina - 2009 - Live In Vladimir [2010, Metal, DVD9]

Ответить на тему
Статистика раздачи
Размер:  6,76 GB   |    Зарегистрирован:  1 год 4 месяца   |    Скачан:  0 раз

Полного источника не было: Никогда

 
   
 
 
Автор Сообщение

star21 ®

Пол: Женский

Стаж: 3 года 11 месяцев

Сообщений: 551988

Откуда: Екатеринбург

Создавать темы 20-Май-2018 06:15

[Цитировать]

Gaina - 2009 - Live In Vladimir Страна: Russia
Жанр: Metal, Hard Rock, Rock
Продолжительность: 01:39:29
Год выпуска: 2010
Описание: Двухкамерный бутлег с записью концерта группы Gaina в г.к. "Золотое кольцо" г. Владимир, 11 декабря 2009 года. Звук - с пульта. Качество - хорошее. В начале первого трека провалена гитара.Треклист:
01 Intro
02 В огонь!
03 Безумцы
04 Когда
05 Время
06 Illusions Never Last
07 Hit For Mtv
08 Если
09 Письмо
10 Крутится волчок
11 Иди же с нами
12 Железный рок
13 Стремления
14 С кем ты играешь и поёшь?!
15 Мираж
16 Случилось
17 Дальний свет
18 Как скучно жить без светлой сказки
19 Не падай духом
20 Музыка НевыДоп. информация:
line-up:
Валерий Гаина - гитара
Сергей Костюк - бас
Павел Пазон - барабаныКачество : DVD9
Формат: DVD video
Видео кодек: MPEG2
Аудио кодек: PCM
Видео: MPEG2, 720 x 576, 4:3, 7967-9641 kbps, 25 fps
Аудио: PCM, 48000Hz 1536 kbps

DVDinfo

Title: Новый томSize: 6.76 Gb ( 7 091 426 KBytes ) - DVD-9Enabled regions: 1, 2, 3, 4, 5, 6, 7, 8VTS_01 :  Play Length: 00:00:29  Video: PAL 4:3 (720x576) VBR  Audio:      Not specified (LinearPCM, 2 ch)VTS_02 :  Play Length: 01:39:28  Video: PAL 4:3 (720x576) VBR  Audio:      Not specified (LinearPCM, 2 ch)Menu Video:      PAL 4:3 (720x576) VBRMenu Audio:      Not specified (LinearPCM, 2 ch)Menu Subtitles:      Not specifiedMenu English Language Unit :      Root Menu      Chapter (PTT) Menu

Media Info

Общее
Полное имя : E:\Gaina - 2009 - Live In Vladimir\VIDEO_TS\VIDEO_TS.BUP
Формат : DVD Video
Профиль формата : Menu
Размер файла : 16,0 Кбайт
Режим общего битрейта : Переменный
FileExtension_Invalid : ifoВидео
Идентификатор : 224 (0xE0)
Формат : MPEG Video
Версия формата : Version 2
Вид битрейта : Переменный
Ширина : 720 пикселей
Высота : 576 пикселей
Соотношение сторон : 4:3
Частота кадров : 25,000 кадров/сек
Стандарт вещания : PAL
Метод сжатия : С потерямиАудио
Формат : PCM
Каналы : 2 канала
Частота : 48,0 КГцТекст
Формат : RLE
Формат/Информация : Run-length encoding
Битовая глубина : 2 битОбщее
Полное имя : E:\Gaina - 2009 - Live In Vladimir\VIDEO_TS\VIDEO_TS.IFO
Формат : DVD Video
Профиль формата : Menu
Размер файла : 16,0 Кбайт
Режим общего битрейта : ПеременныйВидео
Идентификатор : 224 (0xE0)
Формат : MPEG Video
Версия формата : Version 2
Вид битрейта : Переменный
Ширина : 720 пикселей
Высота : 576 пикселей
Соотношение сторон : 4:3
Частота кадров : 25,000 кадров/сек
Стандарт вещания : PAL
Метод сжатия : С потерямиАудио
Формат : PCM
Каналы : 2 канала
Частота : 48,0 КГцТекст
Формат : RLE
Формат/Информация : Run-length encoding
Битовая глубина : 2 битОбщее
Полное имя : E:\Gaina - 2009 - Live In Vladimir\VIDEO_TS\VIDEO_TS.VOB
Формат : MPEG-PS
Размер файла : 288 Кбайт
Продолжительность : 1 с. 240 мс.
Режим общего битрейта : Переменный
Общий поток : 1903 Кбит/секВидео
Идентификатор : 224 (0xE0)
Формат : MPEG Video
Версия формата : Version 2
Профиль формата : Main@Main
Параметр BVOP формата : Нет
Параметр матрицы формата : По умолчанию
Параметр GOP формата : N=1
Структура изображения : Frame
Продолжительность : 1 с. 240 мс.
Вид битрейта : Переменный
Битрейт : 1865 Кбит/сек
Максимальный битрейт : 8000 Кбит/сек
Ширина : 720 пикселей
Высота : 576 пикселей
Соотношение сторон : 4:3
Частота кадров : 25,000 кадров/сек
Стандарт вещания : PAL
Цветовое пространство : YUV
Субдискретизация насыщенности : 4:2:0
Битовая глубина : 8 бит
Тип развёртки : Чересстрочная
Порядок развёртки : Нижнее поле первое
Метод сжатия : С потерями
Бит/(Пиксели*Кадры) : 0.180
Размер потока : 282 Кбайт (98%)
Основные цвета : BT.601 PAL
Характеристики трансфера : BT.470 System B/G
Коэффициенты матрицы : BT.470 System B/GМенюОбщее
Полное имя : E:\Gaina - 2009 - Live In Vladimir\VIDEO_TS\VTS_01_0.BUP
Формат : DVD Video
Профиль формата : Program
Размер файла : 30,0 Кбайт
Продолжительность : 29 с. 200 мс.
Режим общего битрейта : Переменный
Общий поток : 8416 бит/сек
FileExtension_Invalid : ifoВидео
Идентификатор : 224 (0xE0)
Формат : MPEG Video
Версия формата : Version 2
Продолжительность : 29 с. 200 мс.
Вид битрейта : Переменный
Ширина : 720 пикселей
Высота : 576 пикселей
Соотношение сторон : 4:3
Частота кадров : 25,000 кадров/сек
Стандарт вещания : PAL
Метод сжатия : С потерямиАудио
Идентификатор : 0 (0x0)
Формат : PCM
Продолжительность : 29 с. 200 мс.
Каналы : 2 канала
Частота : 48,0 КГцМеню
Продолжительность : 29 с. 200 мс.
00:00:00.000 : Chapter 1
List (Audio) : 0Общее
Полное имя : E:\Gaina - 2009 - Live In Vladimir\VIDEO_TS\VTS_01_0.IFO
Формат : DVD Video
Профиль формата : Program
Размер файла : 30,0 Кбайт
Продолжительность : 29 с. 200 мс.
Режим общего битрейта : Переменный
Общий поток : 8416 бит/секВидео
Идентификатор : 224 (0xE0)
Формат : MPEG Video
Версия формата : Version 2
Продолжительность : 29 с. 200 мс.
Вид битрейта : Переменный
Ширина : 720 пикселей
Высота : 576 пикселей
Соотношение сторон : 4:3
Частота кадров : 25,000 кадров/сек
Стандарт вещания : PAL
Метод сжатия : С потерямиАудио
Идентификатор : 0 (0x0)
Формат : PCM
Продолжительность : 29 с. 200 мс.
Каналы : 2 канала
Частота : 48,0 КГцМеню
Продолжительность : 29 с. 200 мс.
00:00:00.000 : Chapter 1
List (Audio) : 0Общее
Полное имя : E:\Gaina - 2009 - Live In Vladimir\VIDEO_TS\VTS_01_0.VOB
Формат : MPEG-PS
Размер файла : 890 Кбайт
Продолжительность : 400 мс.
Режим общего битрейта : Переменный
Общий поток : 18,2 Мбит/секВидео
Идентификатор : 224 (0xE0)
Формат : MPEG Video
Версия формата : Version 2
Профиль формата : Main@Main
Настройки формата : BVOP
Параметр BVOP формата : Да
Параметр матрицы формата : По умолчанию
Параметр GOP формата : M=3, N=10
Продолжительность : 400 мс.
Вид битрейта : Переменный
Максимальный битрейт : 8244 Кбит/сек
Ширина : 720 пикселей
Высота : 576 пикселей
Соотношение сторон : 4:3
Частота кадров : 25,000 кадров/сек
Стандарт вещания : PAL
Цветовое пространство : YUV
Субдискретизация насыщенности : 4:2:0
Битовая глубина : 8 бит
Тип развёртки : Прогрессивная
Метод сжатия : С потерямиТекст
Идентификатор : 189 (0xBD)-32 (0x20)
Формат : RLE
Формат/Информация : Run-length encoding
Режим смешивания : DVD-VideoМенюОбщее
Полное имя : E:\Gaina - 2009 - Live In Vladimir\VIDEO_TS\VTS_01_1.VOB
Формат : MPEG-PS
Размер файла : 22,2 Мбайт
Продолжительность : 28 с. 698 мс.
Режим общего битрейта : Переменный
Общий поток : 6501 Кбит/секВидео
Идентификатор : 224 (0xE0)
Формат : MPEG Video
Версия формата : Version 2
Профиль формата : Main@Main
Настройки формата : BVOP
Параметр BVOP формата : Да
Параметр матрицы формата : По умолчанию
Параметр GOP формата : M=3, N=12
Структура изображения : Frame
Продолжительность : 28 с. 640 мс.
Вид битрейта : Переменный
Битрейт : 4836 Кбит/сек
Максимальный битрейт : 8244 Кбит/сек
Ширина : 720 пикселей
Высота : 576 пикселей
Соотношение сторон : 4:3
Частота кадров : 25,000 кадров/сек
Стандарт вещания : PAL
Цветовое пространство : YUV
Субдискретизация насыщенности : 4:2:0
Битовая глубина : 8 бит
Тип развёртки : Чересстрочная
Порядок развёртки : Нижнее поле первое
Метод сжатия : С потерями
Бит/(Пиксели*Кадры) : 0.466
Временной код первого кадра : 00:00:00:00
Оригинал временного кода : Group of pictures header
GOP, открыто/закрыто : Закрыто
Размер потока : 16,5 Мбайт (74%)Аудио
Идентификатор : 189 (0xBD)-160 (0xA0)
Формат : PCM
Настройки формата : Big / Signed
Режим смешивания : DVD-Video
Продолжительность : 28 с. 698 мс.
Вид битрейта : Постоянный
Битрейт : 1536 Кбит/сек
Каналы : 2 канала
Частота : 48,0 КГц
Битовая глубина : 16 бит
Размер потока : 5,25 Мбайт (24%)МенюОбщее
Полное имя : E:\Gaina - 2009 - Live In Vladimir\VIDEO_TS\VTS_02_0.BUP
Формат : DVD Video
Профиль формата : Program
Размер файла : 60,0 Кбайт
Продолжительность : 1 ч. 39 м.
Режим общего битрейта : Переменный
Общий поток : 82 бит/сек
FileExtension_Invalid : ifoВидео
Идентификатор : 224 (0xE0)
Формат : MPEG Video
Версия формата : Version 2
Продолжительность : 1 ч. 39 м.
Вид битрейта : Переменный
Ширина : 720 пикселей
Высота : 576 пикселей
Соотношение сторон : 4:3
Частота кадров : 25,000 кадров/сек
Стандарт вещания : PAL
Метод сжатия : С потерямиАудио
Идентификатор : 0 (0x0)
Формат : PCM
Продолжительность : 1 ч. 39 м.
Каналы : 2 канала
Частота : 48,0 КГцМеню
Продолжительность : 1 ч. 39 м.
00:00:00.000 : Chapter 1
00:06:16.240 : Chapter 2
00:10:45.400 : Chapter 3
00:14:49.360 : Chapter 4
00:19:58.720 : Chapter 5
00:24:14.200 : Chapter 6
00:32:00.760 : Chapter 7
00:36:27.040 : Chapter 8
00:41:10.120 : Chapter 9
00:44:46.240 : Chapter 10
00:48:25.960 : Chapter 11
00:58:35.080 : Chapter 12
01:02:22.480 : Chapter 13
01:07:44.560 : Chapter 14
01:13:12.880 : Chapter 15
01:17:16.600 : Chapter 16
01:21:53.320 : Chapter 17
01:27:41.560 : Chapter 18
01:30:21.760 : Chapter 19
01:33:48.520 : Chapter 20
List (Audio) : 0Общее
Полное имя : E:\Gaina - 2009 - Live In Vladimir\VIDEO_TS\VTS_02_0.IFO
Формат : DVD Video
Профиль формата : Program
Размер файла : 60,0 Кбайт
Продолжительность : 1 ч. 39 м.
Режим общего битрейта : Переменный
Общий поток : 82 бит/секВидео
Идентификатор : 224 (0xE0)
Формат : MPEG Video
Версия формата : Version 2
Продолжительность : 1 ч. 39 м.
Вид битрейта : Переменный
Ширина : 720 пикселей
Высота : 576 пикселей
Соотношение сторон : 4:3
Частота кадров : 25,000 кадров/сек
Стандарт вещания : PAL
Метод сжатия : С потерямиАудио
Идентификатор : 0 (0x0)
Формат : PCM
Продолжительность : 1 ч. 39 м.
Каналы : 2 канала
Частота : 48,0 КГцМеню
Продолжительность : 1 ч. 39 м.
00:00:00.000 : Chapter 1
00:06:16.240 : Chapter 2
00:10:45.400 : Chapter 3
00:14:49.360 : Chapter 4
00:19:58.720 : Chapter 5
00:24:14.200 : Chapter 6
00:32:00.760 : Chapter 7
00:36:27.040 : Chapter 8
00:41:10.120 : Chapter 9
00:44:46.240 : Chapter 10
00:48:25.960 : Chapter 11
00:58:35.080 : Chapter 12
01:02:22.480 : Chapter 13
01:07:44.560 : Chapter 14
01:13:12.880 : Chapter 15
01:17:16.600 : Chapter 16
01:21:53.320 : Chapter 17
01:27:41.560 : Chapter 18
01:30:21.760 : Chapter 19
01:33:48.520 : Chapter 20
List (Audio) : 0Общее
Полное имя : E:\Gaina - 2009 - Live In Vladimir\VIDEO_TS\VTS_02_1.VOB
Формат : MPEG-PS
Размер файла : 1000 Мбайт
Продолжительность : 14 м. 25 с.
Режим общего битрейта : Переменный
Общий поток : 9698 Кбит/сек
Библиотека кодирования : Created by NeroВидео
Идентификатор : 224 (0xE0)
Формат : MPEG Video
Версия формата : Version 2
Профиль формата : Main@Main
Настройки формата : CustomMatrix / BVOP
Параметр BVOP формата : Да
Параметр матрицы формата : Выборочная
Параметр GOP формата : M=3, N=15
Продолжительность : 14 м. 25 с.
Вид битрейта : Переменный
Битрейт : 7969 Кбит/сек
Максимальный битрейт : 9641 Кбит/сек
Ширина : 720 пикселей
Высота : 576 пикселей
Соотношение сторон : 4:3
Частота кадров : 25,000 кадров/сек
Стандарт вещания : PAL
Цветовое пространство : YUV
Субдискретизация насыщенности : 4:2:0
Битовая глубина : 8 бит
Тип развёртки : Прогрессивная
Порядок развёртки : Нижнее поле первое
Метод сжатия : С потерями
Бит/(Пиксели*Кадры) : 0.769
Временной код первого кадра : 00:00:00:00
Оригинал временного кода : Group of pictures header
GOP, открыто/закрыто : Открыто
GOP, открыто/закрыто на первом кадре : Закрыто
Размер потока : 822 Мбайт (82%)
Библиотека кодирования : Created by NeroАудио
Идентификатор : 189 (0xBD)-160 (0xA0)
Формат : PCM
Настройки формата : Big / Signed
Режим смешивания : DVD-Video
Продолжительность : 14 м. 24 с.
Вид битрейта : Постоянный
Битрейт : 1536 Кбит/сек
Каналы : 2 канала
Частота : 48,0 КГц
Битовая глубина : 16 бит
Размер потока : 158 Мбайт (16%)МенюОбщее
Полное имя : E:\Gaina - 2009 - Live In Vladimir\VIDEO_TS\VTS_02_2.VOB
Формат : MPEG-PS
Размер файла : 1000 Мбайт
Продолжительность : 14 м. 24 с.
Режим общего битрейта : Переменный
Общий поток : 9708 Кбит/секВидео
Идентификатор : 224 (0xE0)
Формат : MPEG Video
Версия формата : Version 2
Профиль формата : Main@Main
Настройки формата : CustomMatrix / BVOP
Параметр BVOP формата : Да
Параметр матрицы формата : Выборочная
Параметр GOP формата : M=3, N=15
Продолжительность : 14 м. 23 с.
Вид битрейта : Переменный
Битрейт : 7978 Кбит/сек
Максимальный битрейт : 9641 Кбит/сек
Ширина : 720 пикселей
Высота : 576 пикселей
Соотношение сторон : 4:3
Частота кадров : 25,000 кадров/сек
Стандарт вещания : PAL
Цветовое пространство : YUV
Субдискретизация насыщенности : 4:2:0
Битовая глубина : 8 бит
Тип развёртки : Прогрессивная
Порядок развёртки : Нижнее поле первое
Метод сжатия : С потерями
Бит/(Пиксели*Кадры) : 0.770
Временной код первого кадра : 00:14:25:09
Оригинал временного кода : Group of pictures header
GOP, открыто/закрыто : Открыто
Размер потока : 821 Мбайт (82%)Аудио
Идентификатор : 189 (0xBD)-160 (0xA0)
Формат : PCM
Настройки формата : Big / Signed
Режим смешивания : DVD-Video
Продолжительность : 14 м. 24 с.
Вид битрейта : Постоянный
Битрейт : 1536 Кбит/сек
Каналы : 2 канала
Частота : 48,0 КГц
Битовая глубина : 16 бит
Задержка видео : -765 мс.
Размер потока : 158 Мбайт (16%)МенюОбщее
Полное имя : E:\Gaina - 2009 - Live In Vladimir\VIDEO_TS\VTS_02_3.VOB
Формат : MPEG-PS
Размер файла : 1000 Мбайт
Продолжительность : 14 м. 24 с.
Режим общего битрейта : Переменный
Общий поток : 9698 Кбит/секВидео
Идентификатор : 224 (0xE0)
Формат : MPEG Video
Версия формата : Version 2
Профиль формата : Main@Main
Настройки формата : CustomMatrix / BVOP
Параметр BVOP формата : Да
Параметр матрицы формата : Выборочная
Параметр GOP формата : M=3, N=15
Продолжительность : 14 м. 24 с.
Вид битрейта : Переменный
Битрейт : 7969 Кбит/сек
Максимальный битрейт : 9641 Кбит/сек
Ширина : 720 пикселей
Высота : 576 пикселей
Соотношение сторон : 4:3
Частота кадров : 25,000 кадров/сек
Стандарт вещания : PAL
Цветовое пространство : YUV
Субдискретизация насыщенности : 4:2:0
Битовая глубина : 8 бит
Тип развёртки : Прогрессивная
Порядок развёртки : Нижнее поле первое
Метод сжатия : С потерями
Бит/(Пиксели*Кадры) : 0.769
Временной код первого кадра : 00:28:49:09
Оригинал временного кода : Group of pictures header
GOP, открыто/закрыто : Открыто
Размер потока : 821 Мбайт (82%)Аудио
Идентификатор : 189 (0xBD)-160 (0xA0)
Формат : PCM
Настройки формата : Big / Signed
Режим смешивания : DVD-Video
Продолжительность : 14 м. 24 с.
Вид битрейта : Постоянный
Битрейт : 1536 Кбит/сек
Каналы : 2 канала
Частота : 48,0 КГц
Битовая глубина : 16 бит
Задержка видео : -625 мс.
Размер потока : 158 Мбайт (16%)МенюОбщее
Полное имя : E:\Gaina - 2009 - Live In Vladimir\VIDEO_TS\VTS_02_4.VOB
Формат : MPEG-PS
Размер файла : 1000 Мбайт
Продолжительность : 14 м. 24 с.
Режим общего битрейта : Переменный
Общий поток : 9700 Кбит/секВидео
Идентификатор : 224 (0xE0)
Формат : MPEG Video
Версия формата : Version 2
Профиль формата : Main@Main
Настройки формата : CustomMatrix / BVOP
Параметр BVOP формата : Да
Параметр матрицы формата : Выборочная
Параметр GOP формата : M=3, N=15
Продолжительность : 14 м. 24 с.
Вид битрейта : Переменный
Битрейт : 7971 Кбит/сек
Максимальный битрейт : 9641 Кбит/сек
Ширина : 720 пикселей
Высота : 576 пикселей
Соотношение сторон : 4:3
Частота кадров : 25,000 кадров/сек
Стандарт вещания : PAL
Цветовое пространство : YUV
Субдискретизация насыщенности : 4:2:0
Битовая глубина : 8 бит
Тип развёртки : Прогрессивная
Порядок развёртки : Нижнее поле первое
Метод сжатия : С потерями
Бит/(Пиксели*Кадры) : 0.769
Временной код первого кадра : 00:43:14:02
Оригинал временного кода : Group of pictures header
GOP, открыто/закрыто : Открыто
Размер потока : 822 Мбайт (82%)Аудио
Идентификатор : 189 (0xBD)-160 (0xA0)
Формат : PCM
Настройки формата : Big / Signed
Режим смешивания : DVD-Video
Продолжительность : 14 м. 24 с.
Вид битрейта : Постоянный
Битрейт : 1536 Кбит/сек
Каналы : 2 канала
Частота : 48,0 КГц
Битовая глубина : 16 бит
Задержка видео : -388 мс.
Размер потока : 158 Мбайт (16%)МенюОбщее
Полное имя : E:\Gaina - 2009 - Live In Vladimir\VIDEO_TS\VTS_02_5.VOB
Формат : MPEG-PS
Размер файла : 1000 Мбайт
Продолжительность : 14 м. 24 с.
Режим общего битрейта : Переменный
Общий поток : 9699 Кбит/секВидео
Идентификатор : 224 (0xE0)
Формат : MPEG Video
Версия формата : Version 2
Профиль формата : Main@Main
Настройки формата : CustomMatrix / BVOP
Параметр BVOP формата : Да
Параметр матрицы формата : Выборочная
Параметр GOP формата : M=3, N=15
Продолжительность : 14 м. 24 с.
Вид битрейта : Переменный
Битрейт : 7970 Кбит/сек
Максимальный битрейт : 9641 Кбит/сек
Ширина : 720 пикселей
Высота : 576 пикселей
Соотношение сторон : 4:3
Частота кадров : 25,000 кадров/сек
Стандарт вещания : PAL
Цветовое пространство : YUV
Субдискретизация насыщенности : 4:2:0
Битовая глубина : 8 бит
Тип развёртки : Прогрессивная
Порядок развёртки : Нижнее поле первое
Метод сжатия : С потерями
Бит/(Пиксели*Кадры) : 0.769
Временной код первого кадра : 00:57:39:07
Оригинал временного кода : Group of pictures header
GOP, открыто/закрыто : Открыто
Размер потока : 821 Мбайт (82%)Аудио
Идентификатор : 189 (0xBD)-160 (0xA0)
Формат : PCM
Настройки формата : Big / Signed
Режим смешивания : DVD-Video
Продолжительность : 14 м. 24 с.
Вид битрейта : Постоянный
Битрейт : 1536 Кбит/сек
Каналы : 2 канала
Частота : 48,0 КГц
Битовая глубина : 16 бит
Задержка видео : -810 мс.
Размер потока : 158 Мбайт (16%)МенюОбщее
Полное имя : E:\Gaina - 2009 - Live In Vladimir\VIDEO_TS\VTS_02_6.VOB
Формат : MPEG-PS
Размер файла : 1000 Мбайт
Продолжительность : 14 м. 24 с.
Режим общего битрейта : Переменный
Общий поток : 9698 Кбит/секВидео
Идентификатор : 224 (0xE0)
Формат : MPEG Video
Версия формата : Version 2
Профиль формата : Main@Main
Настройки формата : CustomMatrix / BVOP
Параметр BVOP формата : Да
Параметр матрицы формата : Выборочная
Параметр GOP формата : M=3, N=15
Продолжительность : 14 м. 24 с.
Вид битрейта : Переменный
Битрейт : 7969 Кбит/сек
Максимальный битрейт : 9641 Кбит/сек
Ширина : 720 пикселей
Высота : 576 пикселей
Соотношение сторон : 4:3
Частота кадров : 25,000 кадров/сек
Стандарт вещания : PAL
Цветовое пространство : YUV
Субдискретизация насыщенности : 4:2:0
Битовая глубина : 8 бит
Тип развёртки : Прогрессивная
Порядок развёртки : Нижнее поле первое
Метод сжатия : С потерями
Бит/(Пиксели*Кадры) : 0.769
Временной код первого кадра : 01:12:04:03
Оригинал временного кода : Group of pictures header
GOP, открыто/закрыто : Открыто
Размер потока : 821 Мбайт (82%)Аудио
Идентификатор : 189 (0xBD)-160 (0xA0)
Формат : PCM
Настройки формата : Big / Signed
Режим смешивания : DVD-Video
Продолжительность : 14 м. 24 с.
Вид битрейта : Постоянный
Битрейт : 1536 Кбит/сек
Каналы : 2 канала
Частота : 48,0 КГц
Битовая глубина : 16 бит
Задержка видео : -776 мс.
Размер потока : 158 Мбайт (16%)МенюОбщее
Полное имя : E:\Gaina - 2009 - Live In Vladimir\VIDEO_TS\VTS_02_7.VOB
Формат : MPEG-PS
Размер файла : 902 Мбайт
Продолжительность : 13 м. 0 с.
Режим общего битрейта : Переменный
Общий поток : 9696 Кбит/секВидео
Идентификатор : 224 (0xE0)
Формат : MPEG Video
Версия формата : Version 2
Профиль формата : Main@Main
Настройки формата : CustomMatrix / BVOP
Параметр BVOP формата : Да
Параметр матрицы формата : Выборочная
Параметр GOP формата : Variable
Продолжительность : 12 м. 59 с.
Вид битрейта : Переменный
Битрейт : 7967 Кбит/сек
Максимальный битрейт : 9641 Кбит/сек
Ширина : 720 пикселей
Высота : 576 пикселей
Соотношение сторон : 4:3
Частота кадров : 25,000 кадров/сек
Стандарт вещания : PAL
Цветовое пространство : YUV
Субдискретизация насыщенности : 4:2:0
Битовая глубина : 8 бит
Тип развёртки : Прогрессивная
Порядок развёртки : Нижнее поле первое
Метод сжатия : С потерями
Бит/(Пиксели*Кадры) : 0.768
Временной код первого кадра : 01:26:28:21
Оригинал временного кода : Group of pictures header
GOP, открыто/закрыто : Открыто
Размер потока : 740 Мбайт (82%)Аудио
Идентификатор : 189 (0xBD)-160 (0xA0)
Формат : PCM
Настройки формата : Big / Signed
Режим смешивания : DVD-Video
Продолжительность : 13 м. 0 с.
Вид битрейта : Постоянный
Битрейт : 1536 Кбит/сек
Каналы : 2 канала
Частота : 48,0 КГц
Битовая глубина : 16 бит
Задержка видео : -508 мс.
Размер потока : 143 Мбайт (16%)Меню

Скриншоты меню

Скриншоты

Чтобы скачать этот контент, Вам необходимо:
1. Скачать и установить торрент-клиент [клик для Windows], (для мобильного найдите на Play Маркет).
2. Кликнуть по [Скачать]


Внимание.
Если проверка ВЫ НЕ РОБОТ - не работает, значит Вы используете устаревший браузер.
Установите актуальный браузер и повторно кликните по [Скачать]
Безопасность: торрент-клиент разрешён АВ Касперского.

[asmlocator.ru].t533387.torrent 
Торрент: Зарегистрирован [ 2018-05-20 06:15 ] · 80EA625DC50C3E0BC852EF69BD68F89050637C4F

Скачать .torrent

Скачать

18 KB

Статус: проверено
Скачан: 0 раз
Размер: 6,76 GB
terms.php
[Профиль] [ЛС]
Показать сообщения:    
Ответить на тему

Текущее время: 14-Окт 08:23

Часовой пояс: UTC ± 0



Вы не можете начинать темы
Вы не можете отвечать на сообщения
Вы не можете редактировать свои сообщения
Вы не можете удалять свои сообщения
Вы не можете голосовать в опросах
Вы не можете прикреплять файлы к сообщениям
Вы можете скачивать файлы
Верим фактам, а не вранью Путина! Факт, что Правительство ведёт Россию к истреблению.
Так как численность населения падает, даже не смотря на приток эмигрантов!
Русская нация вымирает и вырождается, смешиваясь с эмигрантами!
Факт, что военных и граждан предприятий заставляют голосовать за партию Единая Россия и Путина
ПОД СТРАХОМ УВОЛЬНЕНИЯ!
Нам не нужно Правительство, блокирующее личную жизнь, интернет, нарушающее сохранность данных.
Все эти действия финансируются за счёт народа!