Две тысячи маньяков / 2000 маньяков! / Two Thousand Maniacs! / 2,000 Maniacs (Хершел Гордон Льюис / Herschell Gordon Lewis) [1964, США, ужасы, триллер, треш, DVD5 (Сжатый)] Serveladkin Sub Rus + Original Eng, Fre

Ответить на тему
Статистика раздачи
Размер:  3,59 GB   |    Зарегистрирован:  1 год 8 месяцев   |    Скачан:  0 раз

Полного источника не было: Никогда

 
   
 
 
Автор Сообщение

star21 ®

Пол: Женский

Стаж: 3 года 11 месяцев

Сообщений: 551988

Откуда: Екатеринбург

Создавать темы 08-Фев-2018 09:25

[Цитировать]

Две тысячи маньяков / 2000 маньяков! / Two Thousand Maniacs! / 2,000 Maniacs Страна: США
Студия: Friedman-Lewis Productions
Жанр: ужасы, триллер, треш
Год выпуска: 1964
Продолжительность: 01:23:45Перевод: Субтитры Доп. инфо о переводе Serveladkin
Субтитры: русские
Оригинальная аудиодорожка: английский, французскийРежиссер: Хершел Гордон Льюис / Herschell Gordon LewisВ ролях: William Kerwin; Connie Mason; Jeffrey Allen; Ben Moore; Gary BakemanОписание: Шестеро туристов, умышленно сбитых с верного пути двумя мужиками, заезжают в небольшой город Плезант Вэлли. Там их встречает огромная толпа народа, которая исступлённо празднует столетнюю годовщину со дня основания города. Туристов добровольно принудительно заставляют поучаствовать в их торжестве. Понурив головы, люди соглашаются погостить у них. Не верьте в гостеприимные приёмы со стороны незнакомцев! Празднование такого знаменательного события превращается в кровавую баню. Для каждого из туристов горожане придумали особую, изощрённую смерть. Город численностью о двух тысячах маньяках!
В 2005 году вышел ремейк фильма под названием «2001 маньяк». Бюджет фильма состоял из денег, полученных от проката прошлого фильма того же режиссёра. В прокате шёл со скандалами ввиду своей кровавости, хотя был довольно популярен на юге США(там происходит действие фильма). Премьера состоялась 20 марта 1964 года. РЕЛИЗ ГРУППЫ Доп. информация: В исходнике изначально было удалено меню (не мной)Русские субтитры взяты с этой раздачи http://rutracker.org/forum/viewtopic.php?t=3758670 автору огромное спасибо.Доп. информация: При пересборе двд были использованы программы: Txt2Sup, PgcDemux_1205_exe, muxman_1_1_1, pgcedit, VobBlanker_2130_exe.

Скрин завершения проекта

Бонусы: Коментарии создателей.Сэмпл: http://narod.ru/disk/36003176001/%D1%81%D0%B5%D0%BC%D0%BF%D0%BB.vob.htmlТип релиза: DVD5 (Сжатый)
Контейнер: DVD-VideoВидео: NTSC 4:3 (720x480) VBR
Аудио: English (Dolby AC3, 192 Kbps, 1 ch)
Аудио 2: Francais (Dolby AC3, 192 Kbps, 1 ch)
Аудио 3: English (Dolby AC3, 192 Kbps, 1 ch)
Формат субтитров: softsub (SRT)

DVDInfo

Title:
Size: 3.59 Gb ( 3 766 164 KBytes ) - DVD-5
Enabled regions: 1, 2, 3, 4, 5, 6, 7, 8VTS_01 :
Play Length: 01:23:45
Video: NTSC 4:3 (720x480) VBR
Audio:
English (Dolby AC3, 1 ch)
Francais (Dolby AC3, 1 ch)
English (Dolby AC3, 1 ch)
Subtitles:
RussianMenu Video:
NTSC 4:3 (720x480) VBR
Menu English Language Unit :
Chapter (PTT) Menu

MediaInfo

General
Complete name : E:\DVD\2000 maniacs\VIDEO_TS\VTS_01_1.VOB
Format : MPEG-PS
File size : 1 024 MiB
Duration : 23mn 34s
Overall bit rate : 6 072 KbpsVideo
ID : 224 (0xE0)
Format : MPEG Video
Format version : Version 2
Format profile : Main@Main
Format settings, BVOP : Yes
Format settings, Matrix : Default
Format settings, GOP : M=3, N=15
Duration : 23mn 34s
Bit rate mode : Variable
Bit rate : 5 375 Kbps
Nominal bit rate : 8 000 Kbps
Width : 720 pixels
Height : 480 pixels
Display aspect ratio : 4:3
Frame rate : 29.970 fps
Standard : NTSC
Color space : YUV
Chroma subsampling : 4:2:0
Bit depth : 8 bits
Scan type : Interlaced
Scan order : Top Field First
Bits/(Pixel*Frame) : 0.519
Stream size : 906 MiB (89%)Audio #1
ID : 128 (0x80)
Format : AC-3
Format/Info : Audio Coding 3
Mode extension : CM (complete main)
Duration : 23mn 34s
Bit rate mode : Constant
Bit rate : 192 Kbps
Channel(s) : 1 channel
Channel positions : Front: C
Sampling rate : 48.0 KHz
Bit depth : 16 bits
Video delay : -66ms
Stream size : 32.4 MiB (3%)Audio #2
ID : 129 (0x81)
Format : AC-3
Format/Info : Audio Coding 3
Mode extension : CM (complete main)
Duration : 23mn 34s
Bit rate mode : Constant
Bit rate : 192 Kbps
Channel(s) : 1 channel
Channel positions : Front: C
Sampling rate : 48.0 KHz
Bit depth : 16 bits
Video delay : -66ms
Stream size : 32.4 MiB (3%)Audio #3
ID : 130 (0x82)
Format : AC-3
Format/Info : Audio Coding 3
Mode extension : CM (complete main)
Duration : 23mn 34s
Bit rate mode : Constant
Bit rate : 192 Kbps
Channel(s) : 1 channel
Channel positions : Front: C
Sampling rate : 48.0 KHz
Bit depth : 16 bits
Video delay : -66ms
Stream size : 32.4 MiB (3%)Text
ID : 32 (0x20)
Format : RLE
Format/Info : Run-length encodingMenu

Ещё постеры

Чтобы скачать этот контент, Вам необходимо:
1. Скачать и установить торрент-клиент [клик для Windows], (для мобильного найдите на Play Маркет).
2. Кликнуть по [Скачать]


Внимание.
Если проверка ВЫ НЕ РОБОТ - не работает, значит Вы используете устаревший браузер.
Установите актуальный браузер и повторно кликните по [Скачать]
Безопасность: торрент-клиент разрешён АВ Касперского.

[asmlocator.ru].t501504.torrent 
Торрент: Зарегистрирован [ 2018-02-08 09:25 ] · B34E4773AA66DB8CA3E15A2DDBC6B18EA7D66B58

Скачать .torrent

Скачать

145 KB

Статус: проверено
Скачан: 0 раз
Размер: 3,59 GB
terms.php
[Профиль] [ЛС]
Показать сообщения:    
Ответить на тему

Текущее время: 14-Окт 00:34

Часовой пояс: UTC ± 0



Вы не можете начинать темы
Вы не можете отвечать на сообщения
Вы не можете редактировать свои сообщения
Вы не можете удалять свои сообщения
Вы не можете голосовать в опросах
Вы не можете прикреплять файлы к сообщениям
Вы можете скачивать файлы
Верим фактам, а не вранью Путина! Факт, что Правительство ведёт Россию к истреблению.
Так как численность населения падает, даже не смотря на приток эмигрантов!
Русская нация вымирает и вырождается, смешиваясь с эмигрантами!
Факт, что военных и граждан предприятий заставляют голосовать за партию Единая Россия и Путина
ПОД СТРАХОМ УВОЛЬНЕНИЯ!
Нам не нужно Правительство, блокирующее личную жизнь, интернет, нарушающее сохранность данных.
Все эти действия финансируются за счёт народа!