NHL All-Star Game 1990 / Матч всех звезд НХЛ (бенефис Марио Лемье) [1990, хоккей, TVRip, RU]

Ответить на тему
Статистика раздачи
Размер:  769 MB   |    Зарегистрирован:  1 год 11 месяцев   |    Скачан:  0 раз

Полного источника не было: 1 год 7 месяцев

 
   
 
 
Автор Сообщение

star21 ®

Пол: Женский

Стаж: 3 года 11 месяцев

Сообщений: 551988

Откуда: Екатеринбург

Создавать темы 04-Ноя-2017 08:00

[Цитировать]

All-Star Game 1990 (бенефис Марио Лемье) Год выпуска: 1990
Вид спорта: хоккей
Участники: Mario Lemieux, Messier, Wayne Gretzky и другие
Продолжительность: 1:42
Комментарий: ПРОФЕССИОНАЛЬНЫЙ
Язык комментариев: русский
Описание: Матч всех звезд, проходивший в Питсбурге и ставший бенефисом Марио Лемье
Формат: AVI
Видео кодек: DivX
Аудио кодек: MP3
Видео: DivX 640x480 25.00fps 920 kbps
Аудио: MPEG Audio Layer 3 48000Hz stereo 128Kbps

Скриншоты

MI

Общее
Полное имя : NHL All-Star Game 1990.avi
Формат : AVI
Формат/Информация : Audio Video Interleave
Размер файла : 769 Мбайт
Продолжительность : 1 ч. 41 м.
Общий поток : 1058 Кбит/сек
Библиотека кодирования : VirtualDub build 0/releaseВидео
Идентификатор : 0
Формат : MPEG-4 Visual
Профиль формата : Simple@L1
Параметр BVOP формата : Нет
Параметр QPel формата : Нет
Параметр GMC формата : Без точки перехода
Параметр матрицы формата : Default (H.263)
Идентификатор кодека : DX50
Идентификатор кодека/Подсказка : DivX 5
Продолжительность : 1 ч. 41 м.
Битрейт : 920 Кбит/сек
Ширина : 640 пикселей
Высота : 480 пикселей
Соотношение сторон : 4:3
Частота кадров : 25,000 кадров/сек
Цветовое пространство : YUV
Субдискретизация насыщенности : 4:2:0
Битовая глубина : 8 бит
Тип развёртки : Прогрессивная
Метод сжатия : С потерями
Бит/(Пиксели*Кадры) : 0.120
Размер потока : 669 Мбайт (87%)
Библиотека кодирования : FFmpeg0.4.8b4692Аудио
Идентификатор : 1
Формат : MPEG Audio
Версия формата : Version 1
Профиль формата : Layer 3
Режим : Dual mono
Идентификатор кодека : 55
Идентификатор кодека/Подсказка : MP3
Продолжительность : 1 ч. 41 м.
Вид битрейта : Постоянный
Битрейт : 128 Кбит/сек
Каналы : 2 канала
Частота : 48,0 КГц
Метод сжатия : С потерями
Размер потока : 93,1 Мбайт (12%)
Выравнивание : Разделение по промежуткам
Продолжительность промежутка : 40 мс. (1,00 видеокадр)
Время предзагрузки промежутка : 500 мс.
Библиотека кодирования : LAME3.93

Чтобы скачать этот контент, Вам необходимо:
1. Скачать и установить торрент-клиент [клик для Windows], (для мобильного найдите на Play Маркет).
2. Кликнуть по [Скачать]


Внимание.
Если проверка ВЫ НЕ РОБОТ - не работает, значит Вы используете устаревший браузер.
Установите актуальный браузер и повторно кликните по [Скачать]
Безопасность: торрент-клиент разрешён АВ Касперского.

[asmlocator.ru].t427658.torrent 
Торрент: Зарегистрирован [ 2017-11-04 08:00 ] · FA407F7D2E8B546E1C876101B7CF8CE079DEF960

Скачать .torrent

Скачать

15 KB

Статус: проверено
Скачан: 0 раз
Размер: 769 MB
terms.php
[Профиль] [ЛС]
Показать сообщения:    
Ответить на тему

Текущее время: 14-Окт 07:54

Часовой пояс: UTC ± 0



Вы не можете начинать темы
Вы не можете отвечать на сообщения
Вы не можете редактировать свои сообщения
Вы не можете удалять свои сообщения
Вы не можете голосовать в опросах
Вы не можете прикреплять файлы к сообщениям
Вы можете скачивать файлы
Верим фактам, а не вранью Путина! Факт, что Правительство ведёт Россию к истреблению.
Так как численность населения падает, даже не смотря на приток эмигрантов!
Русская нация вымирает и вырождается, смешиваясь с эмигрантами!
Факт, что военных и граждан предприятий заставляют голосовать за партию Единая Россия и Путина
ПОД СТРАХОМ УВОЛЬНЕНИЯ!
Нам не нужно Правительство, блокирующее личную жизнь, интернет, нарушающее сохранность данных.
Все эти действия финансируются за счёт народа!