Как климат изменил ход истории (1-2 серии из 2) / How Climate Made History (Sigrun Laste / Сигрун Ласте) [2015, Документальный, климат, история, HDTVRip 720p]

Ответить на тему
Статистика раздачи
Размер:  2,84 GB   |    Зарегистрирован:  2 года 9 месяцев   |    Скачан:  0 раз

Полного источника не было: Никогда

 
   
 
 
Автор Сообщение

star21 ®

Пол: Женский

Стаж: 3 года 11 месяцев

Сообщений: 551988

Откуда: Екатеринбург

Создавать темы 04-Янв-2017 14:15

[Цитировать]

Как климат изменил ход истории / How Climate Made History
Год выпуска: 2015
Страна: Германия
Студия: Story House for ZDF
Жанр: Документальный, климат, история
Продолжительность: 2 ~ 00:51:39
Перевод: Студийный (одноголосый закадровый)
Доп. инфо о переводе: SDI Media
Режиссер: Sigrun Laste / Сигрун Ласте
Описание: Последнее время создается впечатление, что стихийные бедствия с каждым годом по своей силе превосходят все наши ожидания: губительные засухи, невероятные потопы, тающие полярные льды и разрушающие ураганы. Программа расскажет о том, как изменения рельефа и расположения материков, светимости солнца, образования горных цепей сформировали климат Земли. Мы также узнаем, каким образом сегодня человек влияет на изменение погодных условий, и к чему нам стоит быть готовыми в будущем.
Сэмпл: https://www.sendspace.com/file/fru5gb
Тип релиза: HDTVRip 720p
Контейнер: MKV
Видео: 1280x720 (16:9), 25 fps, AVC (x264), High@L4.1, 3650 kbps, 25fps, 0.158 bit/pixel
Аудио: Русский 48 kHz, MPEG Layer 2, 2 ch, ~128.00 kbps avg
Аудио 2: Английский 48 kHz, MPEG Layer 2, 2 ch, ~128.00 kbps avg

Содержание

01. В этой серии мы узнаем, как формирование нашей планеты, ее положение по отношению к солнцу и рождение горных цепей способствовали созданию уникального климата Земли.
02. В этой серии мы узнаем, каким образом сегодня человек влияет на изменение климата и к чему нам стоит быть готовыми в будущем

MediaInfo

GeneralUnique ID                   : 252903996086416800844419385858876220016 (0xBE4389B4967EC35C8C69C5DD97D3A270)Complete name               : F:\Наладки\Климат\1\ Климат 1_720p.mkvFormat                      : MatroskaFormat version              : Version 4 / Version 2File size                   : 1.41 GiBDuration                    : 51mn 38sOverall bit rate            : 3 908 KbpsEncoded date                : UTC 2016-08-21 07:32:34Writing application         : mkvmerge v8.9.0 ('Father Daughter') 64bitWriting library             : libebml v1.3.3 + libmatroska v1.4.4
VideoID : 1Format : AVCFormat/Info : Advanced Video CodecFormat profile : High@L4.1Format settings, CABAC : YesFormat settings, ReFrames : 8 framesCodec ID : V_MPEG4/ISO/AVCDuration : 51mn 38sBit rate : 3 650 KbpsWidth : 1 280 pixelsHeight : 720 pixelsDisplay aspect ratio : 16:9Frame rate mode : ConstantFrame rate : 25.000 fpsColor space : YUVChroma subsampling : 4:2:0Bit depth : 8 bitsScan type : ProgressiveBits/(Pixel*Frame) : 0.158Stream size : 1.32 GiB (93%)Writing library : x264 core 148 r2638 7599210Encoding settings : cabac=1 / ref=8 / deblock=1:-3:-3 / analyse=0x3:0x133 / me=umh / subme=11 / psy=1 / psy_rd=1.00:0.00 / mixed_ref=1 / me_range=32 / chroma_me=1 / trellis=2 / 8x8dct=1 / cqm=0 / deadzone=21,11 / fast_pskip=1 / chroma_qp_offset=-2 / threads=12 / lookahead_threads=2 / sliced_threads=0 / nr=0 / decimate=0 / interlaced=0 / bluray_compat=0 / constrained_intra=0 / bframes=8 / b_pyramid=2 / b_adapt=2 / b_bias=0 / direct=3 / weightb=1 / open_gop=0 / weightp=2 / keyint=250 / keyint_min=25 / scenecut=40 / intra_refresh=0 / rc_lookahead=50 / rc=2pass / mbtree=1 / bitrate=3650 / ratetol=1.0 / qcomp=0.60 / qpmin=0 / qpmax=69 / qpstep=4 / cplxblur=20.0 / qblur=0.5 / ip_ratio=1.40 / aq=1:1.00Language : EnglishDefault : YesForced : No
Audio #1ID : 2Format : MPEG AudioFormat version : Version 1Format profile : Layer 2Codec ID : A_MPEG/L2Codec ID/Hint : MP2Duration : 51mn 38sBit rate mode : ConstantBit rate : 128 KbpsChannel(s) : 2 channelsSampling rate : 48.0 KHzFrame rate : 41.667 fps (1152 spf)Compression mode : LossyStream size : 47.3 MiB (3%)Language : RussianDefault : YesForced : No
Audio #2ID : 3Format : MPEG AudioFormat version : Version 1Format profile : Layer 2Codec ID : A_MPEG/L2Codec ID/Hint : MP2Duration : 51mn 38sBit rate mode : ConstantBit rate : 128 KbpsChannel(s) : 2 channelsSampling rate : 48.0 KHzFrame rate : 41.667 fps (1152 spf)Compression mode : LossyStream size : 47.3 MiB (3%)Language : EnglishDefault : NoForced : No

Скриншоты


Чтобы скачать этот контент, Вам необходимо:
1. Скачать и установить торрент-клиент [клик для Windows], (для мобильного найдите на Play Маркет).
2. Кликнуть по [Скачать]


Внимание.
Если проверка ВЫ НЕ РОБОТ - не работает, значит Вы используете устаревший браузер.
Установите актуальный браузер и повторно кликните по [Скачать]
Безопасность: торрент-клиент разрешён АВ Касперского.

[mail.asmlocator.ru].t300433.torrent 
Торрент: Зарегистрирован [ 2017-01-04 14:15 ] · 4AF9E9D5A16F7ACB0B4D93F27BA325076FF39134

Скачать .torrent

Скачать

15 KB

Статус: проверено
Скачан: 0 раз
Размер: 2,84 GB
terms.php
[Профиль] [ЛС]
Показать сообщения:    
Ответить на тему

Текущее время: 21-Окт 09:37

Часовой пояс: UTC ± 0



Вы не можете начинать темы
Вы не можете отвечать на сообщения
Вы не можете редактировать свои сообщения
Вы не можете удалять свои сообщения
Вы не можете голосовать в опросах
Вы не можете прикреплять файлы к сообщениям
Вы можете скачивать файлы
Верим фактам, а не вранью Путина! Факт, что Правительство ведёт Россию к истреблению.
Так как численность населения падает, даже не смотря на приток эмигрантов!
Русская нация вымирает и вырождается, смешиваясь с эмигрантами!
Факт, что военных и граждан предприятий заставляют голосовать за партию Единая Россия и Путина
ПОД СТРАХОМ УВОЛЬНЕНИЯ!
Нам не нужно Правительство, блокирующее личную жизнь, интернет, нарушающее сохранность данных.
Все эти действия финансируются за счёт народа!