Главный Ботанический сад Российской академии наук [2014, Документальный, HDTV 1080i]

Ответить на тему
Статистика раздачи
Размер:  1,62 GB   |    Зарегистрирован:  2 года 9 месяцев   |    Скачан:  0 раз

Полного источника не было: 1 год 3 месяца

 
   
 
 
Автор Сообщение

star21 ®

Пол: Женский

Стаж: 3 года 11 месяцев

Сообщений: 551988

Откуда: Екатеринбург

Создавать темы 04-Янв-2017 14:15

[Цитировать]

Главный Ботанический сад Российской академии наук
Год выпуска: 2014
Страна: Россия
Жанр: Документальный
Продолжительность: 00:26:04
Перевод: Не требуется
Описание: В России первый ботанический сад - "аптекарский огород" - учредили при царе Иване Грозном в 1581 в Кремле. Заморские растения собирали и культивировали для изготовления лекарств. Сейчас ботанические сады в первую очередь - научные центры, благодаря которым сохраняется многообразие растений на планете. Главный Ботанический сад Российской академии наук крупнейший в Европе по площади. Его фонды, включающие более 18 тысяч наименований - национальное достояние России.
Доп. информация: IPTV Remux (запись потока без перекодирования)
Тип релиза: HDTV 1080i
Контейнер: TS
Видео: AVC H.264, 1920x1080i (16:9), 25 fps, 8314 kbps , 0.160 bits/pixel
Аудио: MPEG Audio, 2 channels, 160 kbps, 48KHz

MediaInfo

GeneralID                                       : 1 (0x1)Complete name                            : Главный Ботанический сад Российской академии наук.tsFormat                                   : MPEG-TSFile size                                : 1.62 GiBDuration                                 : 26mn 4sOverall bit rate mode                    : VariableOverall bit rate                         : 8 916 Kbps
VideoID : 3206 (0xC86)Menu ID : 1 (0x1)Format : AVCFormat/Info : Advanced Video CodecFormat profile : High@L4.0Format settings, CABAC : YesFormat settings, ReFrames : 3 framesCodec ID : 27Duration : 26mn 4sBit rate : 8 314 KbpsWidth : 1 920 pixelsHeight : 1 080 pixelsDisplay aspect ratio : 16:9Frame rate : 25.000 fpsStandard : ComponentColor space : YUVChroma subsampling : 4:2:0Bit depth : 8 bitsScan type : InterlacedScan order : Top Field FirstBits/(Pixel*Frame) : 0.160Stream size : 1.51 GiB (93%)Color primaries : BT.709Transfer characteristics : BT.709Matrix coefficients : BT.709
AudioID : 4206 (0x106E)Menu ID : 1 (0x1)Format : MPEG AudioFormat version : Version 1Format profile : Layer 2Codec ID : 3Duration : 26mn 4sBit rate mode : ConstantBit rate : 160 KbpsChannel(s) : 2 channelsSampling rate : 48.0 KHzCompression mode : LossyStream size : 29.8 MiB (2%)Language : Russian

Скриншоты

Чтобы скачать этот контент, Вам необходимо:
1. Скачать и установить торрент-клиент [клик для Windows], (для мобильного найдите на Play Маркет).
2. Кликнуть по [Скачать]


Внимание.
Если проверка ВЫ НЕ РОБОТ - не работает, значит Вы используете устаревший браузер.
Установите актуальный браузер и повторно кликните по [Скачать]
Безопасность: торрент-клиент разрешён АВ Касперского.

[mail.asmlocator.ru].t300416.torrent 
Торрент: Зарегистрирован [ 2017-01-04 14:15 ] · EF60C00B0E453CB3ECA00496D73C6474D049879F

Скачать .torrent

Скачать

17 KB

Статус: проверено
Скачан: 0 раз
Размер: 1,62 GB
terms.php
[Профиль] [ЛС]
Показать сообщения:    
Ответить на тему

Текущее время: 21-Окт 11:12

Часовой пояс: UTC ± 0



Вы не можете начинать темы
Вы не можете отвечать на сообщения
Вы не можете редактировать свои сообщения
Вы не можете удалять свои сообщения
Вы не можете голосовать в опросах
Вы не можете прикреплять файлы к сообщениям
Вы можете скачивать файлы
Верим фактам, а не вранью Путина! Факт, что Правительство ведёт Россию к истреблению.
Так как численность населения падает, даже не смотря на приток эмигрантов!
Русская нация вымирает и вырождается, смешиваясь с эмигрантами!
Факт, что военных и граждан предприятий заставляют голосовать за партию Единая Россия и Путина
ПОД СТРАХОМ УВОЛЬНЕНИЯ!
Нам не нужно Правительство, блокирующее личную жизнь, интернет, нарушающее сохранность данных.
Все эти действия финансируются за счёт народа!