Золотой граммофон 2002 (г. Москва, Кремль) [2002 г., Pop, VHSRip]

Ответить на тему
Статистика раздачи
Размер:  7.18 GB   |    Зарегистрирован:  3 года 11 месяцев   |    Скачан:  1 раз

Полного источника не было: 6 минут

 
   
 
 
Автор Сообщение

star21 ®

Пол: Женский

Стаж: 4 года 8 месяцев

Сообщений: 551945

Откуда: Екатеринбург

Создавать темы 13-Июл-2016 21:45

[Цитировать]

Золотой граммофон 2002 (Москва) Год выпуска: 2002
Страна: Россия
Жанр: Pop
Продолжительность: 02:35:54
Описание: Концерт Золотой граммофон 2002, прошедший в Москве 15 ноября 2002 года. Ведущие первого отделения Алла Пугачёва и Николай Фоменко, второго - Алла Пугачёва и Максим Галкин
Качество: VHSRip
Формат: mp4
Видео кодек: AVC1
Аудио кодек: AAC
Видео: 6400 Kbps; 720x576; 4:3; 25.000 fps
Аудио: 192 Kbps; 48000Hz; Stereo

Выступления

Церемония открытия
1) Блестящие - За четыре моря
2) Леонид Агутин и Анжелика Варум - Если ты когда-нибудь меня простишь
3) Дмитрий Маликов - Love Story
4) Верка Сердючка - Гоп-гоп
5) Банда Андрюха и Алексин - Страшная
6) Ариана - Первая любовь
7) Hi-Fi - СШ №7 (А мы любили)
8) Диана Гурцкая - Ты знаешь, мама…
9) Иванушки International - Золотые облака
10) Моральный кодекс - Первый снег
11) Алсу - Всё равно
12) Мумий Тролль - Это по любви
13) Би-2 и Юлия Чичерина - Мой рок-н-ролл
14) Александр Розенбаум - Мы живы
15) Премьер-Министр - Девочка с севера
16) О.С.П.-Студия - Восточная песня (пародия)
17) Гости из Будущего - Он чужой
18) Чай Вдвоём - Моя
19) Авраам Руссо и Кристина Орбакайте - Любовь, которой больше нет
20) Руки Вверх! - Он тебя целует (последние секудны выступления)
21) Reflex - Сойти с ума
22) Дискотека Авария - Disco Superstar
23) Смысловые Галлюцинации - Зачем топтать мою любовь
24) Вячеслав Петкун, Александр Голубев и Антон Макарский - Belle
25) Максим Галкин - Belle (пародия)
26) Любэ - Давай за…
27) Алла Пугачёва и Максим Галкин - Это любовь

MediaInfo

General
Complete name : Золотой граммофон 2002 (Москва).mp4
Format : MPEG-4
Format profile : Base Media / Version 2
Codec ID : mp42
File size : 7.18 GiB
Duration : 2h 35mn
Overall bit rate mode : Variable
Overall bit rate : 6 595 Kbps
Writing application : TMPGEnc Video Mastering Works 5 Version. 5.0.6.38
Video
ID : 2
Format : AVC
Format/Info : Advanced Video Codec
Format profile : High@L3.0
Format settings, CABAC : Yes
Format settings, ReFrames : 3 frames
Codec ID : avc1
Codec ID/Info : Advanced Video Coding
Duration : 2h 35mn
Bit rate mode : Constant
Bit rate : 6 400 Kbps
Nominal bit rate : 6 820 Kbps / 6 820 Kbps
Width : 720 pixels
Height : 576 pixels
Display aspect ratio : 4:3
Original display aspect ratio : 4:3
Frame rate mode : Constant
Frame rate : 25.000 fps
Standard : NTSC
Color space : YUV
Chroma subsampling : 4:2:0
Bit depth : 8 bits
Scan type : Progressive
Bits/(Pixel*Frame) : 0.617
Stream size : 6.97 GiB (97%)
Writing library : x264 core 114
Encoding settings : cabac=1 / ref=3 / deblock=1:0:0 / analyse=0x3:0x113 / me=hex / subme=7 / psy=1 / psy_rd=1.00:0.00 / mixed_ref=1 / me_range=16 / chroma_me=1 / trellis=1 / 8x8dct=1 / cqm=2 / deadzone=21,11 / fast_pskip=1 / chroma_qp_offset=-2 / threads=12 / sliced_threads=0 / slices=1 / nr=0 / decimate=1 / interlaced=0 / constrained_intra=0 / bframes=3 / b_pyramid=0 / b_adapt=1 / b_bias=0 / direct=1 / weightb=1 / open_gop=0 / weightp=2 / keyint=250 / keyint_min=25 / scenecut=40 / intra_refresh=0 / rc_lookahead=40 / rc=cbr / mbtree=1 / bitrate=6820 / ratetol=1.0 / qcomp=0.60 / qpmin=3 / qpmax=69 / qpstep=4 / vbv_maxrate=6820 / vbv_bufsize=6815 / nal_hrd=cbr / ip_ratio=1.40 / aq=1:1.00
Color primaries : BT.601 PAL
Transfer characteristics : BT.470 System B, BT.470 System G
Matrix coefficients : BT.601
Audio
ID : 1
Format : AAC
Format/Info : Advanced Audio Codec
Format profile : LC
Codec ID : 40
Duration : 2h 35mn
Bit rate mode : Variable
Bit rate : 192 Kbps
Maximum bit rate : 576 Kbps
Channel count : 2 channels
Channel positions : Front: L R
Sampling rate : 48.0 KHz
Compression mode : Lossy
Delay relative to video : 40ms
Stream size : 214 MiB (3%)

Скриншоты


Скринлист

За предоставленный материал спасибо julsunny!!!

Чтобы скачать этот контент, Вам необходимо:
1. Скачать и установить торрент-клиент [клик для Windows], (для мобильного найдите на Play Маркет).
2. Кликнуть по [Скачать]


Внимание.
Если проверка ВЫ НЕ РОБОТ - не работает, значит Вы используете устаревший браузер.
Установите актуальный браузер и повторно кликните по [Скачать]

Запрещён Яндекс браузер. Загрузка файлов им является ошибочной.
Безопасность: торрент-клиент разрешён АВ Касперского.

[mail.asmlocator.ru].t170625.torrent 
Торрент: Зарегистрирован [ 2016-07-13 21:45 ] · 29E9191B6798E34E5D8A4AF8C92A114B167D28C4

Скачать .torrent

Скачать

36 KB

Статус: проверено
Скачан: 1 раз
Размер: 7.18 GB
terms.php
[Профиль] [ЛС]

gendav

Пол: Мужской

Стаж: 2 месяца 14 дней

Сообщений: 142

Откуда: USA

Создавать темы 04-Май-2020 22:53 (спустя 3 года 9 месяцев)

[Цитировать]

Спасибо, забрал!
[Профиль] [ЛС]
Показать сообщения:    
Ответить на тему

Текущее время: 11-Июл 03:51

Часовой пояс: UTC ± 0



Вы не можете начинать темы
Вы не можете отвечать на сообщения
Вы не можете редактировать свои сообщения
Вы не можете удалять свои сообщения
Вы не можете голосовать в опросах
Вы не можете прикреплять файлы к сообщениям
Вы можете скачивать файлы
Верим фактам, а не вранью Путина! Факт, что Правительство ведёт Россию к истреблению.
Так как численность населения падает, даже не смотря на приток эмигрантов!
Русская нация вымирает и вырождается, смешиваясь с эмигрантами!
Факт, что военных и граждан предприятий заставляют голосовать за партию Единая Россия и Путина
ПОД СТРАХОМ УВОЛЬНЕНИЯ!
Нам не нужно Правительство, блокирующее личную жизнь, интернет, нарушающее сохранность данных.
Все эти действия финансируются за счёт народа!