(JPop, AOR, Fusion, Boogie, City Pop, Jazz, Rock, Funk) [CD] Various Artists - Pacific Breeze 2: Japanese City Pop, AOR & Boogie 1972-1986 - 2020, FLAC (tracks+.cue), lossless

Ответить на тему
Статистика раздачи
Размер:  441 MB   |    Зарегистрирован:  1 месяц 22 дня   |    Скачан:  0 раз

Полного источника не было: Никогда

 
   
 
 
Автор Сообщение

star21 ®

Пол: Женский

Стаж: 4 года 8 месяцев

Сообщений: 551945

Откуда: Екатеринбург

Создавать темы 20-Май-2020 01:50

[Цитировать]

Various Artists / Pacific Breeze 2: Japanese City Pop, AOR & Boogie 1972-1986
Жанр: AOR, Fusion, Boogie, City Pop, Jazz, Rock, Funk
Носитель: CD
Страна-производитель диска (релиза): USA
Год издания: 2020
Издатель (лейбл): Light In The Attic ‎
Номер по каталогу: LITA 179
Аудиокодек: FLAC (*.flac)
Тип рипа: tracks+.cue
Продолжительность: 01:06:24
Источник: Обмен
Наличие сканов в содержимом раздачи: нет
Треклист:

1. Bread & Butter – Pink Shadow
2. Eiichi Ohtaki – Yubikiri
3. Kimiko Kasai – Vibration (Love Celebration)
4. The Mystery Kindaichi Band – Kindaichi Kosuke No Theme
5. Tetsuji Hayashi – Hidari Mune No Seiza
6. Anri – Last Summer Whisper
7. Momoko Kikuchi – Blind Curve
8. Tomoko Aran – I’m In Love
9. Yu Imai – Kindaichi Kosuke Nishi E Iku
10. Sadistics – The Tokyo Taste
11. Piper – Hot Sand
12. Junko Ohashi & Minoya Central Station – Rainy Saturday & Coffee Break
13. Eri Ohno – Skyfire
14. Yumi Murata – Kanpoo
15. Kyoko Furuya – Harumifutou
16. Yuji Toriyama – Bay/Sky Provincetown 1977

Лог создания рипа

X Lossless Decoder version 20181019 (151.1)
XLD extraction logfile from 2020-05-13 13:46:19 -0700
Various Artists / Pacific Breeze Volume 2: Japanese City Pop, AOR & Boogie 1972-1986
Used drive : Apple SuperDrive (revision 2.03)Media type : Pressed CD
Ripper mode : XLD Secure RipperDisable audio cache : OK for the drive with a cache less than 1375KiBMake use of C2 pointers : NORead offset correction : 6Max retry count : 100Gap status : Analyzed, Appended (except HTOA)
TOC of the extracted CD Track | Start | Length | Start sector | End sector --------------------------------------------------------- 1 | 00:00:00 | 03:16:26 | 0 | 14725 2 | 03:16:26 | 03:34:21 | 14726 | 30796 3 | 06:50:47 | 04:14:67 | 30797 | 49913 4 | 11:05:39 | 03:28:63 | 49914 | 65576 5 | 14:34:27 | 04:00:16 | 65577 | 83592 6 | 18:34:43 | 04:58:27 | 83593 | 105969 7 | 23:32:70 | 04:02:44 | 105970 | 124163 8 | 27:35:39 | 05:51:72 | 124164 | 150560 9 | 33:27:36 | 03:16:15 | 150561 | 165275 10 | 36:43:51 | 03:33:36 | 165276 | 181286 11 | 40:17:12 | 03:29:11 | 181287 | 196972 12 | 43:46:23 | 03:43:28 | 196973 | 213725 13 | 47:29:51 | 05:12:06 | 213726 | 237131 14 | 52:41:57 | 05:03:55 | 237132 | 259911 15 | 57:45:37 | 04:12:50 | 259912 | 278861 16 | 61:58:12 | 04:26:22 | 278862 | 298833
AccurateRip Summary Disc not found in AccurateRip DB.
All Tracks Album gain : -7.37 dB Peak : 0.999969 Statistics Read error : 0 Jitter error (maybe fixed) : 0 Retry sector count : 0 Damaged sector count : 0
Track 01 Filename : /Users/Shared/rips/Various Artists - Pacific Breeze Volume 2: Japanese City Pop, AOR & Boogie 1972-1986 (Unknown Year) [MP3 V0]/01 Pink Shadow.mp3 /Users/Shared/rips/Various Artists - Pacific Breeze Volume 2: Japanese City Pop, AOR & Boogie 1972-1986 (Unknown Year) [MP3 320kbps]/01 Pink Shadow.mp3 /Users/Shared/rips/Various Artists - Pacific Breeze Volume 2: Japanese City Pop, AOR & Boogie 1972-1986 (Unknown Year) [FLAC]/01 Pink Shadow.flac Pre-gap length : 00:02:00
Track gain : -8.17 dB Peak : 0.989624 CRC32 hash (test run) : 86A75E2F CRC32 hash : 86A75E2F CRC32 hash (skip zero) : F3336D6A AccurateRip v1 signature : 376DB53E AccurateRip v2 signature : E0E46A0B ->Track not present in AccurateRip database. Statistics Read error : 0 Jitter error (maybe fixed) : 0 Retry sector count : 0 Damaged sector count : 0
Track 02 Filename : /Users/Shared/rips/Various Artists - Pacific Breeze Volume 2: Japanese City Pop, AOR & Boogie 1972-1986 (Unknown Year) [MP3 V0]/02 Yubikiri.mp3 /Users/Shared/rips/Various Artists - Pacific Breeze Volume 2: Japanese City Pop, AOR & Boogie 1972-1986 (Unknown Year) [MP3 320kbps]/02 Yubikiri.mp3 /Users/Shared/rips/Various Artists - Pacific Breeze Volume 2: Japanese City Pop, AOR & Boogie 1972-1986 (Unknown Year) [FLAC]/02 Yubikiri.flac
Track gain : -7.64 dB Peak : 0.996979 CRC32 hash (test run) : 997751EC CRC32 hash : 997751EC CRC32 hash (skip zero) : 514778D6 AccurateRip v1 signature : E60F021E AccurateRip v2 signature : A9EF65BC ->Track not present in AccurateRip database. Statistics Read error : 0 Jitter error (maybe fixed) : 0 Retry sector count : 0 Damaged sector count : 0
Track 03 Filename : /Users/Shared/rips/Various Artists - Pacific Breeze Volume 2: Japanese City Pop, AOR & Boogie 1972-1986 (Unknown Year) [MP3 V0]/03 Vibration.mp3 /Users/Shared/rips/Various Artists - Pacific Breeze Volume 2: Japanese City Pop, AOR & Boogie 1972-1986 (Unknown Year) [MP3 320kbps]/03 Vibration.mp3 /Users/Shared/rips/Various Artists - Pacific Breeze Volume 2: Japanese City Pop, AOR & Boogie 1972-1986 (Unknown Year) [FLAC]/03 Vibration.flac
Track gain : -8.12 dB Peak : 0.999969 CRC32 hash (test run) : CB1CFCA6 CRC32 hash : CB1CFCA6 CRC32 hash (skip zero) : BDEFC970 AccurateRip v1 signature : EF3FDBF1 AccurateRip v2 signature : CE96CB9A ->Track not present in AccurateRip database. Statistics Read error : 0 Jitter error (maybe fixed) : 0 Retry sector count : 0 Damaged sector count : 0
Track 04 Filename : /Users/Shared/rips/Various Artists - Pacific Breeze Volume 2: Japanese City Pop, AOR & Boogie 1972-1986 (Unknown Year) [MP3 V0]/04 Kindaichi Kosuke No Theme.mp3 /Users/Shared/rips/Various Artists - Pacific Breeze Volume 2: Japanese City Pop, AOR & Boogie 1972-1986 (Unknown Year) [MP3 320kbps]/04 Kindaichi Kosuke No Theme.mp3 /Users/Shared/rips/Various Artists - Pacific Breeze Volume 2: Japanese City Pop, AOR & Boogie 1972-1986 (Unknown Year) [FLAC]/04 Kindaichi Kosuke No Theme.flac
Track gain : -7.63 dB Peak : 0.999969 CRC32 hash (test run) : 7C8A1BDF CRC32 hash : 7C8A1BDF CRC32 hash (skip zero) : 128496D8 AccurateRip v1 signature : B97E1AC8 AccurateRip v2 signature : E38D2766 ->Track not present in AccurateRip database. Statistics Read error : 0 Jitter error (maybe fixed) : 0 Retry sector count : 0 Damaged sector count : 0
Track 05 Filename : /Users/Shared/rips/Various Artists - Pacific Breeze Volume 2: Japanese City Pop, AOR & Boogie 1972-1986 (Unknown Year) [MP3 V0]/05 Hidari Mune No Seiza.mp3 /Users/Shared/rips/Various Artists - Pacific Breeze Volume 2: Japanese City Pop, AOR & Boogie 1972-1986 (Unknown Year) [MP3 320kbps]/05 Hidari Mune No Seiza.mp3 /Users/Shared/rips/Various Artists - Pacific Breeze Volume 2: Japanese City Pop, AOR & Boogie 1972-1986 (Unknown Year) [FLAC]/05 Hidari Mune No Seiza.flac
Track gain : -8.35 dB Peak : 0.993073 CRC32 hash (test run) : EC1B2AC7 CRC32 hash : EC1B2AC7 CRC32 hash (skip zero) : 19B82306 AccurateRip v1 signature : 8F045331 AccurateRip v2 signature : E0E2D941 ->Track not present in AccurateRip database. Statistics Read error : 0 Jitter error (maybe fixed) : 0 Retry sector count : 0 Damaged sector count : 0
Track 06 Filename : /Users/Shared/rips/Various Artists - Pacific Breeze Volume 2: Japanese City Pop, AOR & Boogie 1972-1986 (Unknown Year) [MP3 V0]/06 Last Summer Whisper.mp3 /Users/Shared/rips/Various Artists - Pacific Breeze Volume 2: Japanese City Pop, AOR & Boogie 1972-1986 (Unknown Year) [MP3 320kbps]/06 Last Summer Whisper.mp3 /Users/Shared/rips/Various Artists - Pacific Breeze Volume 2: Japanese City Pop, AOR & Boogie 1972-1986 (Unknown Year) [FLAC]/06 Last Summer Whisper.flac
Track gain : -8.09 dB Peak : 0.999969 CRC32 hash (test run) : F25112D7 CRC32 hash : F25112D7 CRC32 hash (skip zero) : F5C89116 AccurateRip v1 signature : B78D527D AccurateRip v2 signature : 3AB91A47 ->Track not present in AccurateRip database. Statistics Read error : 0 Jitter error (maybe fixed) : 0 Retry sector count : 0 Damaged sector count : 0
Track 07 Filename : /Users/Shared/rips/Various Artists - Pacific Breeze Volume 2: Japanese City Pop, AOR & Boogie 1972-1986 (Unknown Year) [MP3 V0]/07 Blind Curve.mp3 /Users/Shared/rips/Various Artists - Pacific Breeze Volume 2: Japanese City Pop, AOR & Boogie 1972-1986 (Unknown Year) [MP3 320kbps]/07 Blind Curve.mp3 /Users/Shared/rips/Various Artists - Pacific Breeze Volume 2: Japanese City Pop, AOR & Boogie 1972-1986 (Unknown Year) [FLAC]/07 Blind Curve.flac
Track gain : -7.85 dB Peak : 0.986267 CRC32 hash (test run) : 81A348FE CRC32 hash : 81A348FE CRC32 hash (skip zero) : 4A16F3B1 AccurateRip v1 signature : 95811591 AccurateRip v2 signature : CCC444CD ->Track not present in AccurateRip database. Statistics Read error : 0 Jitter error (maybe fixed) : 0 Retry sector count : 0 Damaged sector count : 0
Track 08 Filename : /Users/Shared/rips/Various Artists - Pacific Breeze Volume 2: Japanese City Pop, AOR & Boogie 1972-1986 (Unknown Year) [MP3 V0]/08 I'm In Love.mp3 /Users/Shared/rips/Various Artists - Pacific Breeze Volume 2: Japanese City Pop, AOR & Boogie 1972-1986 (Unknown Year) [MP3 320kbps]/08 I'm In Love.mp3 /Users/Shared/rips/Various Artists - Pacific Breeze Volume 2: Japanese City Pop, AOR & Boogie 1972-1986 (Unknown Year) [FLAC]/08 I'm In Love.flac
Track gain : -7.15 dB Peak : 0.999969 CRC32 hash (test run) : 44303C43 CRC32 hash : 44303C43 CRC32 hash (skip zero) : 85BB43E2 AccurateRip v1 signature : 991AC969 AccurateRip v2 signature : F6ECF140 ->Track not present in AccurateRip database. Statistics Read error : 0 Jitter error (maybe fixed) : 0 Retry sector count : 0 Damaged sector count : 0
Track 09 Filename : /Users/Shared/rips/Various Artists - Pacific Breeze Volume 2: Japanese City Pop, AOR & Boogie 1972-1986 (Unknown Year) [MP3 V0]/09 Kindaichi Kosuke Nishi E Iku.mp3 /Users/Shared/rips/Various Artists - Pacific Breeze Volume 2: Japanese City Pop, AOR & Boogie 1972-1986 (Unknown Year) [MP3 320kbps]/09 Kindaichi Kosuke Nishi E Iku.mp3 /Users/Shared/rips/Various Artists - Pacific Breeze Volume 2: Japanese City Pop, AOR & Boogie 1972-1986 (Unknown Year) [FLAC]/09 Kindaichi Kosuke Nishi E Iku.flac
Track gain : -3.42 dB Peak : 0.996429 CRC32 hash (test run) : 6154F398 CRC32 hash : 6154F398 CRC32 hash (skip zero) : 9CE054A3 AccurateRip v1 signature : 97D8DCBE AccurateRip v2 signature : 8D293394 ->Track not present in AccurateRip database. Statistics Read error : 0 Jitter error (maybe fixed) : 0 Retry sector count : 0 Damaged sector count : 0
Track 10 Filename : /Users/Shared/rips/Various Artists - Pacific Breeze Volume 2: Japanese City Pop, AOR & Boogie 1972-1986 (Unknown Year) [MP3 V0]/10 Tokyo Taste.mp3 /Users/Shared/rips/Various Artists - Pacific Breeze Volume 2: Japanese City Pop, AOR & Boogie 1972-1986 (Unknown Year) [MP3 320kbps]/10 Tokyo Taste.mp3 /Users/Shared/rips/Various Artists - Pacific Breeze Volume 2: Japanese City Pop, AOR & Boogie 1972-1986 (Unknown Year) [FLAC]/10 Tokyo Taste.flac
Track gain : -7.35 dB Peak : 0.999969 CRC32 hash (test run) : 3237527B CRC32 hash : 3237527B CRC32 hash (skip zero) : 7776CD84 AccurateRip v1 signature : 041494BE AccurateRip v2 signature : 86723E86 ->Track not present in AccurateRip database. Statistics Read error : 0 Jitter error (maybe fixed) : 0 Retry sector count : 0 Damaged sector count : 0
Track 11 Filename : /Users/Shared/rips/Various Artists - Pacific Breeze Volume 2: Japanese City Pop, AOR & Boogie 1972-1986 (Unknown Year) [MP3 V0]/11 Hot Sand.mp3 /Users/Shared/rips/Various Artists - Pacific Breeze Volume 2: Japanese City Pop, AOR & Boogie 1972-1986 (Unknown Year) [MP3 320kbps]/11 Hot Sand.mp3 /Users/Shared/rips/Various Artists - Pacific Breeze Volume 2: Japanese City Pop, AOR & Boogie 1972-1986 (Unknown Year) [FLAC]/11 Hot Sand.flac
Track gain : -7.69 dB Peak : 0.986267 CRC32 hash (test run) : 9E78640F CRC32 hash : 9E78640F CRC32 hash (skip zero) : 68D892C9 AccurateRip v1 signature : 28114C07 AccurateRip v2 signature : D12A9FAA ->Track not present in AccurateRip database. Statistics Read error : 0 Jitter error (maybe fixed) : 0 Retry sector count : 0 Damaged sector count : 0
Track 12 Filename : /Users/Shared/rips/Various Artists - Pacific Breeze Volume 2: Japanese City Pop, AOR & Boogie 1972-1986 (Unknown Year) [MP3 V0]/12 Rainy Saturday Coffee Break.mp3 /Users/Shared/rips/Various Artists - Pacific Breeze Volume 2: Japanese City Pop, AOR & Boogie 1972-1986 (Unknown Year) [MP3 320kbps]/12 Rainy Saturday Coffee Break.mp3 /Users/Shared/rips/Various Artists - Pacific Breeze Volume 2: Japanese City Pop, AOR & Boogie 1972-1986 (Unknown Year) [FLAC]/12 Rainy Saturday Coffee Break.flac
Track gain : -8.92 dB Peak : 0.994049 CRC32 hash (test run) : 86493D12 CRC32 hash : 86493D12 CRC32 hash (skip zero) : AE632EF9 AccurateRip v1 signature : BD6D3914 AccurateRip v2 signature : 795DBAC3 ->Track not present in AccurateRip database. Statistics Read error : 0 Jitter error (maybe fixed) : 0 Retry sector count : 0 Damaged sector count : 0
Track 13 Filename : /Users/Shared/rips/Various Artists - Pacific Breeze Volume 2: Japanese City Pop, AOR & Boogie 1972-1986 (Unknown Year) [MP3 V0]/13 Skyfire.mp3 /Users/Shared/rips/Various Artists - Pacific Breeze Volume 2: Japanese City Pop, AOR & Boogie 1972-1986 (Unknown Year) [MP3 320kbps]/13 Skyfire.mp3 /Users/Shared/rips/Various Artists - Pacific Breeze Volume 2: Japanese City Pop, AOR & Boogie 1972-1986 (Unknown Year) [FLAC]/13 Skyfire.flac
Track gain : -7.19 dB Peak : 0.999969 CRC32 hash (test run) : E2286A69 CRC32 hash : E2286A69 CRC32 hash (skip zero) : F34F1544 AccurateRip v1 signature : 169E02A5 AccurateRip v2 signature : B42C9D2E ->Track not present in AccurateRip database. Statistics Read error : 0 Jitter error (maybe fixed) : 0 Retry sector count : 0 Damaged sector count : 0
Track 14 Filename : /Users/Shared/rips/Various Artists - Pacific Breeze Volume 2: Japanese City Pop, AOR & Boogie 1972-1986 (Unknown Year) [MP3 V0]/14 Kanpoo.mp3 /Users/Shared/rips/Various Artists - Pacific Breeze Volume 2: Japanese City Pop, AOR & Boogie 1972-1986 (Unknown Year) [MP3 320kbps]/14 Kanpoo.mp3 /Users/Shared/rips/Various Artists - Pacific Breeze Volume 2: Japanese City Pop, AOR & Boogie 1972-1986 (Unknown Year) [FLAC]/14 Kanpoo.flac
Track gain : -6.40 dB Peak : 0.999969 CRC32 hash (test run) : AA0756FC CRC32 hash : AA0756FC CRC32 hash (skip zero) : 797A8D71 AccurateRip v1 signature : D3A784CA AccurateRip v2 signature : 78F185A9 ->Track not present in AccurateRip database. Statistics Read error : 0 Jitter error (maybe fixed) : 0 Retry sector count : 0 Damaged sector count : 0
Track 15 Filename : /Users/Shared/rips/Various Artists - Pacific Breeze Volume 2: Japanese City Pop, AOR & Boogie 1972-1986 (Unknown Year) [MP3 V0]/15 Harumifutou.mp3 /Users/Shared/rips/Various Artists - Pacific Breeze Volume 2: Japanese City Pop, AOR & Boogie 1972-1986 (Unknown Year) [MP3 320kbps]/15 Harumifutou.mp3 /Users/Shared/rips/Various Artists - Pacific Breeze Volume 2: Japanese City Pop, AOR & Boogie 1972-1986 (Unknown Year) [FLAC]/15 Harumifutou.flac
Track gain : -5.55 dB Peak : 0.994354 CRC32 hash (test run) : A96D5424 CRC32 hash : A96D5424 CRC32 hash (skip zero) : 7ED088D3 AccurateRip v1 signature : 0D552025 AccurateRip v2 signature : 0B0F8B51 ->Track not present in AccurateRip database. Statistics Read error : 0 Jitter error (maybe fixed) : 0 Retry sector count : 0 Damaged sector count : 0
Track 16 Filename : /Users/Shared/rips/Various Artists - Pacific Breeze Volume 2: Japanese City Pop, AOR & Boogie 1972-1986 (Unknown Year) [MP3 V0]/16 Bay/Sky Provincetown 1977.mp3 /Users/Shared/rips/Various Artists - Pacific Breeze Volume 2: Japanese City Pop, AOR & Boogie 1972-1986 (Unknown Year) [MP3 320kbps]/16 Bay/Sky Provincetown 1977.mp3 /Users/Shared/rips/Various Artists - Pacific Breeze Volume 2: Japanese City Pop, AOR & Boogie 1972-1986 (Unknown Year) [FLAC]/16 Bay/Sky Provincetown 1977.flac
Track gain : -5.06 dB Peak : 0.986267 CRC32 hash (test run) : 0F271FBA CRC32 hash : 0F271FBA CRC32 hash (skip zero) : 46034160 AccurateRip v1 signature : 71CAD02E AccurateRip v2 signature : 93457E0A ->Track not present in AccurateRip database. Statistics Read error : 0 Jitter error (maybe fixed) : 0 Retry sector count : 0 Damaged sector count : 0
No errors occurred
End of status report
-----BEGIN XLD SIGNATURE-----72PFbfsmUpJZtOMH2aLhvIKgYpBvRkgl5iHvNSOPRvC7QJU3Rn3Khgi0yYEexW6GfGv_1qjTHGTSgT1jHBtf9g9zH4ctUGkStL.E06G-----END XLD SIGNATURE-----

Содержание индексной карты (.CUE)

TITLE "Pacific Breeze Volume 2: Japanese City Pop, AOR & Boogie 1972-1986"PERFORMER "Various Artists"REM DISCNUMBER 1REM TOTALDISCS 1REM DISCID DC0F9010REM REPLAYGAIN_ALBUM_GAIN -7.37 dBREM REPLAYGAIN_ALBUM_PEAK 0.999969REM COMPILATION TRUEFILE "01 Pink Shadow.flac" WAVE  TRACK 01 AUDIO    TITLE "Pink Shadow"    PERFORMER "Bread & Butter"    REM REPLAYGAIN_TRACK_GAIN -8.17 dB    REM REPLAYGAIN_TRACK_PEAK 0.989624    INDEX 01 00:00:00FILE "02 Yubikiri.flac" WAVE  TRACK 02 AUDIO    TITLE "Yubikiri"    PERFORMER "Eiichi Ohtaki"    REM REPLAYGAIN_TRACK_GAIN -7.64 dB    REM REPLAYGAIN_TRACK_PEAK 0.996979    INDEX 01 00:00:00FILE "03 Vibration.flac" WAVE  TRACK 03 AUDIO    TITLE "Vibration"    PERFORMER "Kimiko Kasai"    REM REPLAYGAIN_TRACK_GAIN -8.12 dB    REM REPLAYGAIN_TRACK_PEAK 0.999969    INDEX 01 00:00:00FILE "04 Kindaichi Kosuke No Theme.flac" WAVE  TRACK 04 AUDIO    TITLE "Kindaichi Kosuke No Theme"    PERFORMER "The Mystery Kindaichi Band"    REM REPLAYGAIN_TRACK_GAIN -7.63 dB    REM REPLAYGAIN_TRACK_PEAK 0.999969    INDEX 01 00:00:00FILE "05 Hidari Mune No Seiza.flac" WAVE  TRACK 05 AUDIO    TITLE "Hidari Mune No Seiza"    PERFORMER "Tetsuji Hayashi"    REM REPLAYGAIN_TRACK_GAIN -8.35 dB    REM REPLAYGAIN_TRACK_PEAK 0.993073    INDEX 01 00:00:00FILE "06 Last Summer Whisper.flac" WAVE  TRACK 06 AUDIO    TITLE "Last Summer Whisper"    PERFORMER "Anri"    REM REPLAYGAIN_TRACK_GAIN -8.09 dB    REM REPLAYGAIN_TRACK_PEAK 0.999969    INDEX 01 00:00:00FILE "07 Blind Curve.flac" WAVE  TRACK 07 AUDIO    TITLE "Blind Curve"    PERFORMER "Momoko Kikuchi"    REM REPLAYGAIN_TRACK_GAIN -7.85 dB    REM REPLAYGAIN_TRACK_PEAK 0.986267    INDEX 01 00:00:00FILE "08 I'm In Love.flac" WAVE  TRACK 08 AUDIO    TITLE "I'm In Love"    PERFORMER "Tomoko Aran"    REM REPLAYGAIN_TRACK_GAIN -7.15 dB    REM REPLAYGAIN_TRACK_PEAK 0.999969    INDEX 01 00:00:00FILE "09 Kindaichi Kosuke Nishi E Iku.flac" WAVE  TRACK 09 AUDIO    TITLE "Kindaichi Kosuke Nishi E Iku"    PERFORMER "Yu Imai"    REM REPLAYGAIN_TRACK_GAIN -3.42 dB    REM REPLAYGAIN_TRACK_PEAK 0.996429    INDEX 01 00:00:00FILE "10 Tokyo Taste.flac" WAVE  TRACK 10 AUDIO    TITLE "Tokyo Taste"    PERFORMER "The Sadistics"    REM REPLAYGAIN_TRACK_GAIN -7.35 dB    REM REPLAYGAIN_TRACK_PEAK 0.999969    INDEX 01 00:00:00FILE "11 Hot Sand.flac" WAVE  TRACK 11 AUDIO    TITLE "Hot Sand"    PERFORMER "Piper"    REM REPLAYGAIN_TRACK_GAIN -7.69 dB    REM REPLAYGAIN_TRACK_PEAK 0.986267    INDEX 01 00:00:00FILE "12 Rainy Saturday Coffee Break.flac" WAVE  TRACK 12 AUDIO    TITLE "Rainy Saturday Coffee Break"    PERFORMER "Junko Ohashi & Minoya Central Station"    REM REPLAYGAIN_TRACK_GAIN -8.92 dB    REM REPLAYGAIN_TRACK_PEAK 0.994049    INDEX 01 00:00:00FILE "13 Skyfire.flac" WAVE  TRACK 13 AUDIO    TITLE "Skyfire"    PERFORMER "Eri Ohno"    REM REPLAYGAIN_TRACK_GAIN -7.19 dB    REM REPLAYGAIN_TRACK_PEAK 0.999969    INDEX 01 00:00:00FILE "14 Kanpoo.flac" WAVE  TRACK 14 AUDIO    TITLE "Kanpoo"    PERFORMER "Yumi Murata"    REM REPLAYGAIN_TRACK_GAIN -6.40 dB    REM REPLAYGAIN_TRACK_PEAK 0.999969    INDEX 01 00:00:00FILE "15 Harumifutou.flac" WAVE  TRACK 15 AUDIO    TITLE "Harumifutou"    PERFORMER "Kyoko Furuya"    REM REPLAYGAIN_TRACK_GAIN -5.55 dB    REM REPLAYGAIN_TRACK_PEAK 0.994354    INDEX 01 00:00:00FILE "16 Bay/Sky Provincetown 1977.flac" WAVE  TRACK 16 AUDIO    TITLE "Bay/Sky Provincetown 1977"    PERFORMER "Yuji Toriyama"    REM REPLAYGAIN_TRACK_GAIN -5.06 dB    REM REPLAYGAIN_TRACK_PEAK 0.986267    INDEX 01 00:00:00

Чтобы скачать этот контент, Вам необходимо:
1. Скачать и установить торрент-клиент [клик для Windows], (для мобильного найдите на Play Маркет).
2. Кликнуть по [Скачать]


Внимание.
Если проверка ВЫ НЕ РОБОТ - не работает, значит Вы используете устаревший браузер.
Установите актуальный браузер и повторно кликните по [Скачать]

Запрещён Яндекс браузер. Загрузка файлов им является ошибочной.
Безопасность: торрент-клиент разрешён АВ Касперского.

[mail.asmlocator.ru].t736518.torrent 
Торрент: Зарегистрирован [ 2020-05-20 01:50 ] · 622CC92D57E84BEAD494869182152905ECD6B9C6

Скачать .torrent

Скачать

19 KB

Статус: проверено
Скачан: 0 раз
Размер: 441 MB
terms.php
[Профиль] [ЛС]
Показать сообщения:    
Ответить на тему

Текущее время: 11-Июл 03:31

Часовой пояс: UTC ± 0



Вы не можете начинать темы
Вы не можете отвечать на сообщения
Вы не можете редактировать свои сообщения
Вы не можете удалять свои сообщения
Вы не можете голосовать в опросах
Вы не можете прикреплять файлы к сообщениям
Вы можете скачивать файлы
Верим фактам, а не вранью Путина! Факт, что Правительство ведёт Россию к истреблению.
Так как численность населения падает, даже не смотря на приток эмигрантов!
Русская нация вымирает и вырождается, смешиваясь с эмигрантами!
Факт, что военных и граждан предприятий заставляют голосовать за партию Единая Россия и Путина
ПОД СТРАХОМ УВОЛЬНЕНИЯ!
Нам не нужно Правительство, блокирующее личную жизнь, интернет, нарушающее сохранность данных.
Все эти действия финансируются за счёт народа!