Я родом из детства (Виктор Туров) [1966, военная драма, SATRip]

Ответить на тему
Статистика раздачи
Размер:  1.45 GB   |    Зарегистрирован:  4 месяца   |    Скачан:  2 раза

Полного источника не было: 1 час 8 минут

 
   
 
 
Автор Сообщение

star21 ®

Пол: Женский

Стаж: 4 года 8 месяцев

Сообщений: 551945

Откуда: Екатеринбург

Создавать темы 10-Мар-2020 07:20

[Цитировать]

Я родом из детства
Год выпуска: 1966
Жанр: военная драма
Продолжительность: 01:29:34.439 (134361 frames)
Субтитры: нет
Режиссер: Виктор Туров
В ролях: Нина Ургант, Татьяна Овчинко, Эдуард Довнар, Валерий Зубарев, Виктор Колодкин, Галина Супрунова, Светлана Турова, Елизавета Уварова, Маргарита Гладунко, Арина Алейникова, Евгений Ташков, Владимир Высоцкий, Владимир Белокуров, Павел Кормунин, Борис Сивицкий, Борис Руднев, Станислав Хитров
Описание: Удивительно тонкая, лирическая картина о детстве тех, кто во время Великой Отечественной войны впервые перенес тяжесть утраты близких, желание мстить врагу и стремление к счастью. Герои фильма - мальчишки Игорь и Женька - живут в прифронтовом городе и ждут отцов, братьев и сестер... По опросу белорусских критиков признан лучшим фильмом, созданным за всю историю белорусского кино.
Качество: SATRip
Формат: AVI
Видео кодек: XviD
Аудио кодек: АС3
Видео: 720x544 (1.32:1), 25 fps, XviD build 73 ~2123 kbps avg, 0.22 bit/pixel
Аудио: 48 kHz, AC3 Dolby Digital, 2/0 (L,R) ch, ~192.00 kbps avg

Скриншоты

Медиаинфо

General
Complete name : E:\004 Мои раздачи\Я родом из детства 1,46\ya_rodom_iz_detstva_1.46_by_bm11.avi
Format : AVI
Format/Info : Audio Video Interleave
File size : 1.45 GiB
Duration : 1h 29mn
Overall bit rate : 2 325 Kbps
Director : bm11
Writing application : VirtualDubMod 1.5.10.3 | www.virtualdub-fr.org || (build 2550/release)
Video
ID : 0
Format : MPEG-4 Visual
Format profile : Advanced Simple@L5
Format settings, BVOP : 1
Format settings, QPel : No
Format settings, GMC : No warppoints
Format settings, Matrix : Custom
Codec ID : XVID
Codec ID/Hint : XviD
Duration : 1h 29mn
Bit rate : 2 124 Kbps
Width : 720 pixels
Height : 544 pixels
Display aspect ratio : 4:3
Frame rate : 25.000 fps
Color space : YUV
Chroma subsampling : 4:2:0
Bit depth : 8 bits
Scan type : Progressive
Compression mode : Lossy
Bits/(Pixel*Frame) : 0.217
Stream size : 1.33 GiB (91%)
Writing library : XviD 73
Audio
ID : 1
Format : AC-3
Format/Info : Audio Coding 3
Mode extension : CM (complete main)
Format settings, Endianness : Big
Codec ID : 2000
Duration : 1h 29mn
Bit rate mode : Constant
Bit rate : 192 Kbps
Channel(s) : 2 channels
Channel positions : Front: L R
Sampling rate : 48.0 KHz
Frame rate : 31.250 fps (1536 spf)
Compression mode : Lossy
Stream size : 123 MiB (8%)
Alignment : Split accross interleaves
Interleave, duration : 40 ms (1.00 video frame)
Interleave, preload duratio : 500 ms

Чтобы скачать этот контент, Вам необходимо:
1. Скачать и установить торрент-клиент [клик для Windows], (для мобильного найдите на Play Маркет).
2. Кликнуть по [Скачать]


Внимание.
Если проверка ВЫ НЕ РОБОТ - не работает, значит Вы используете устаревший браузер.
Установите актуальный браузер и повторно кликните по [Скачать]

Запрещён Яндекс браузер. Загрузка файлов им является ошибочной.
Безопасность: торрент-клиент разрешён АВ Касперского.

[mail.asmlocator.ru].t714973.torrent 
Торрент: Зарегистрирован [ 2020-03-10 07:20 ] · 555A670F17261B8E2C64AFA2BDEE2581F4D7FBB5

Скачать .torrent

Скачать

15 KB

Статус: проверено
Скачан: 2 раз
Размер: 1.45 GB
terms.php
[Профиль] [ЛС]
Показать сообщения:    
Ответить на тему

Текущее время: 11-Июл 03:48

Часовой пояс: UTC ± 0



Вы не можете начинать темы
Вы не можете отвечать на сообщения
Вы не можете редактировать свои сообщения
Вы не можете удалять свои сообщения
Вы не можете голосовать в опросах
Вы не можете прикреплять файлы к сообщениям
Вы можете скачивать файлы
Верим фактам, а не вранью Путина! Факт, что Правительство ведёт Россию к истреблению.
Так как численность населения падает, даже не смотря на приток эмигрантов!
Русская нация вымирает и вырождается, смешиваясь с эмигрантами!
Факт, что военных и граждан предприятий заставляют голосовать за партию Единая Россия и Путина
ПОД СТРАХОМ УВОЛЬНЕНИЯ!
Нам не нужно Правительство, блокирующее личную жизнь, интернет, нарушающее сохранность данных.
Все эти действия финансируются за счёт народа!