Шорт Сандерленд / The Short Sunderland Flying Boat (Роберт Гарофало / Robert Garofalo) [2010, документальный, военный, DVD5 (Custom)]

Ответить на тему
Статистика раздачи
Размер:  3.68 GB   |    Зарегистрирован:  4 месяца 7 дней   |    Скачан:  0 раз

Полного источника не было: Никогда

 
   
 
 
Автор Сообщение

star21 ®

Пол: Женский

Стаж: 4 года 8 месяцев

Сообщений: 551945

Откуда: Екатеринбург

Создавать темы 03-Мар-2020 17:40

[Цитировать]

Шорт Сандерленд / The Short Sunderland Flying Boat
Год выпуска: 2010
Страна: Великобритания
Жанр: документальный, военный
Продолжительность: 00:58:25
Перевод: Одноголосый закадровый
Доп. инфо о переводе: А.Багичев
Русские субтитры: есть
Режиссер: Роберт Гарофало / Robert Garofalo
Описание: Фильм посвящен летающей лодке Шорт Сандерленд. С момента её появления в РАФ в 1938 г. она стала одной из самых долговечных конструкторских разработок, прослужив не только Вторую Мировую, но и всю Корейскую войну. К моменту отправки на пенсию в 1959 г. она заслужила репутацию исключительно надёжной рабочей лошадки.
Доп. информация: Исходник куплен мной, перевод состоялся благодаря: alinto, Dreenkens, killer snowman, PonchoUsatiy, Arias, умелец54, bvedargh, -Holo-, всем спасибо.
Используемое ПО:
PGCDemux (извлечение).
SubtitleCreator (работа с субтитрами).
MuxMan (сборка).
VobBlanker (финал)
Меню: есть, озвучено, анимировано.
Сэмпл: http://sendfile.su/1540643
Главы (разбивка по трекам): есть
Качество: DVD5 (Custom)
Формат: DVD Video
Видео кодек: MPEG2
Аудио кодек: AC3
Видео: PAL 4:3 (720x576) VBR
Аудио 1: Russian (Dolby AC3, 2 ch, 192 kbps)
Аудио 2: English (Dolby AC3, 2 ch, 256 kbps)

DVDInfo

Size: 3.68 Gb ( 3 863 230,00 KBytes ) - DVD-5Enabled regions: 1, 2, 3, 4, 5, 6, 7, 8
VTS_01 : Play Length: 00:00:28 Video: PAL 4:3 (720x576) VBR Audio: Not specified (Dolby AC3, 2 ch)
VTS_02 : Play Length: 00:58:25 Video: PAL 4:3 (720x576) VBR Audio: Russian (Dolby AC3, 2 ch) English (Dolby AC3, 2 ch) Subtitles: Russian
* Menus Information *
VIDEO_TS MenuVideo: PAL 4:3 (720x576) VBRAudio: Not specified (Dolby AC3, 2 ch)English Language Unit : Title Menu
VTS_01 MenuVideo: NTSC 4:3 (720x480) VBR Auto Pan&Scan, Auto LetterboxedLanguage Unit : Chapter (PTT) Menu
VTS_02 MenuVideo: PAL 4:3 (720x576) VBREnglish Language Unit : Root Menu

MediaInfo

Format                                   : MPEG-PSFile size                                : 1 024 MiBDuration                                 : 16 min 35 sOverall bit rate mode                    : VariableOverall bit rate                         : 8 632 kb/s
VideoID : 224 (0xE0)Format : MPEG VideoFormat version : Version 2Format profile : Main@MainFormat settings : BVOPFormat settings, BVOP : YesFormat settings, Matrix : DefaultFormat settings, GOP : M=2, N=5Format settings, picture structure : FieldDuration : 16 min 35 sBit rate mode : VariableBit rate : 8 000 kb/sWidth : 720 pixelsHeight : 576 pixelsDisplay aspect ratio : 4:3Frame rate : 25.000 FPSStandard : PALColor space : YUVChroma subsampling : 4:2:0Bit depth : 8 bitsScan type : InterlacedScan order : Top Field FirstCompression mode : LossyBits/(Pixel*Frame) : 0.772Time code of first frame : 10:00:00:00Time code source : Group of pictures headerGOP, Open/Closed : OpenStream size : 950 MiB (93%)Color primaries : BT.601 PALTransfer characteristics : BT.470 System B/GMatrix coefficients : BT.470 System B/G
Audio #1ID : 189 (0xBD)-128 (0x80)Format : AC-3Format/Info : Audio Coding 3Commercial name : Dolby DigitalMuxing mode : DVD-VideoDuration : 16 min 34 sBit rate mode : ConstantBit rate : 192 kb/sChannel(s) : 2 channelsChannel layout : L RSampling rate : 48.0 kHzFrame rate : 31.250 FPS (1536 SPF)Compression mode : LossyStream size : 22.8 MiB (2%)Service kind : Complete Main
Audio #2ID : 189 (0xBD)-129 (0x81)Format : AC-3Format/Info : Audio Coding 3Commercial name : Dolby DigitalMuxing mode : DVD-VideoDuration : 16 min 34 sBit rate mode : ConstantBit rate : 256 kb/sChannel(s) : 2 channelsChannel layout : L RSampling rate : 48.0 kHzFrame rate : 31.250 FPS (1536 SPF)Compression mode : LossyStream size : 30.4 MiB (3%)Service kind : Complete Main
TextID : 189 (0xBD)-32 (0x20)Format : RLEFormat/Info : Run-length encodingMuxing mode : DVD-Video
Menu

Скриншоты меню

Скриншоты

Чтобы скачать этот контент, Вам необходимо:
1. Скачать и установить торрент-клиент [клик для Windows], (для мобильного найдите на Play Маркет).
2. Кликнуть по [Скачать]


Внимание.
Если проверка ВЫ НЕ РОБОТ - не работает, значит Вы используете устаревший браузер.
Установите актуальный браузер и повторно кликните по [Скачать]

Запрещён Яндекс браузер. Загрузка файлов им является ошибочной.
Безопасность: торрент-клиент разрешён АВ Касперского.

[mail.asmlocator.ru].t713228.torrent 
Торрент: Зарегистрирован [ 2020-03-03 17:40 ] · 1F9146305401BF86110B24AFEB4EFEBF983E5751

Скачать .torrent

Скачать

20 KB

Статус: проверено
Скачан: 0 раз
Размер: 3.68 GB
terms.php
[Профиль] [ЛС]
Показать сообщения:    
Ответить на тему

Текущее время: 11-Июл 05:55

Часовой пояс: UTC ± 0



Вы не можете начинать темы
Вы не можете отвечать на сообщения
Вы не можете редактировать свои сообщения
Вы не можете удалять свои сообщения
Вы не можете голосовать в опросах
Вы не можете прикреплять файлы к сообщениям
Вы можете скачивать файлы
Верим фактам, а не вранью Путина! Факт, что Правительство ведёт Россию к истреблению.
Так как численность населения падает, даже не смотря на приток эмигрантов!
Русская нация вымирает и вырождается, смешиваясь с эмигрантами!
Факт, что военных и граждан предприятий заставляют голосовать за партию Единая Россия и Путина
ПОД СТРАХОМ УВОЛЬНЕНИЯ!
Нам не нужно Правительство, блокирующее личную жизнь, интернет, нарушающее сохранность данных.
Все эти действия финансируются за счёт народа!