Фэншуй / Подходящее место для могилы / Myung-dang / Myeongdang / Fengshui (Пак Хи-гон / Park Hee-gon) [2018, Южная Корея, драма, история, WEB-DL 1080p] 2x MVO (STEPonee, HDRezka Studio) + Sub (Eng) + Original (Kor)

Ответить на тему
Статистика раздачи
Размер:  7.65 GB   |    Зарегистрирован:  4 месяца   |    Скачан:  0 раз

Полного источника не было: Никогда

 
   
 
 
Автор Сообщение

star21 ®

Пол: Женский

Стаж: 4 года 2 месяца

Сообщений: 551946

Откуда: Екатеринбург

Создавать темы 21-Сен-2019 04:25

[Цитировать]

Фэншуй / Подходящее место для могилы
Myung-dang / Myeongdang / Fengshui
Страна: Южная Корея
Жанр: драма, история
Год выпуска: 2018
Продолжительность: 02:06:24Перевод:
  • Любительский (многоголосый закадровый) STEPonee // Перевод: ФСГ 'Do4U'
    • Любительский (многоголосый закадровый) HDRezka Studio
      Субтитры: английские, корейские
      Оригинальная аудиодорожка: корейскийРежиссер: Пак Хи-гон / Park Hee-gon
      В ролях: Чо Сын-у, Чи Сон, Ким Сон-гюн, Мун Чхэ-вон, Ю Джэ-мён, Пак Чхун-сон, Пэк Юн-щик, Ли Вон-гын, Кан Тхэ-о, Тхэ Ин-хоОписание:
      Чосон, середина XIX века. Влиятельный интриган министр Ким отравил короля и подкупил специалистов по фэншуй посоветовать для королевской могилы неудачное место. Но молодой мастер Пак Чэ-сан имел неосторожность сказать о неподходящем месте наследнику, за что и поплатился — его жену и ребёнка убили, а дом сожгли. 13 лет спустя министр Ким всё ещё плетёт заговор против монаршей семьи и нажил себе немало врагов. Судьба сводит уже известного знатока фэншуй Пак Чэ-сана и родного дядю короля — оба пытаются выяснить место захоронения предков Кима, чтобы ослабить влияние его клана и отомстить.
      [imdb]http://www.imdb.com/title/tt7046524[/imdb] Релиз группы: Тип релиза: WEB-DL 1080p (Fengshui.2018.1080p.AMZN.WEB-DL.DDP2.0.H.264-ARiN)
      Контейнер: MKVВидео: AVC (x264), 1920x816 (2.35:1) at 23,976 fps, 8073 Кbps
      Аудио 1: AC3; 192 Kbps; CBR; 2 ch; 48 khz | MVO - STEPonee |
      Аудио 2: AAC; 167 Kbps; VBR; 2 ch; 48 khz | MVO - HDRezka Studio |
      Аудио 3: E-AC3; 224 Kbps; CBR; 2 ch; 48 khz | Корейский |
      Формат субтитров: softsub (SRT)

      Скриншоты || MediaInfo

      MediaInfo

      Код:
      General
      Unique ID : 235489219283231641218096741903163904308 (0xB12992EB18D1CE438991829E0DC2D134)
      Complete name : Фэншуй.2018.MVO.1080p.WEB-DL.x264-ARiN.mkv
      Format : Matroska
      Format version : Version 4
      File size : 7.65 GiB
      Duration : 2 h 6 min
      Overall bit rate : 8 660 kb/s
      Movie name : Fengshui [2018] [1080p] MVO
      Encoded date : UTC 2019-08-27 03:07:44
      Writing application : mkvmerge v37.0.0 ('Leave It') 32-bit
      Writing library : libebml v1.3.9 + libmatroska v1.5.2
      Attachments : poster.jpg
      DIRECTOR : Hee-kon Park
      GENRE : History
      IMDB : tt7046524
      KEYWORDS : rutracker.org , RG Orient Extreme Films , profile.php?mode=viewprofile&u=22488948Video
      ID : 1
      Format : AVC
      Format/Info : Advanced Video Codec
      Format profile : High@L4
      Format settings : CABAC / 4 Ref Frames
      Format settings, CABAC : Yes
      Format settings, Reference frames : 4 frames
      Codec ID : V_MPEG4/ISO/AVC
      Duration : 2 h 6 min
      Bit rate mode : Constant
      Bit rate : 8 073 kb/s
      Nominal bit rate : 10 000 kb/s
      Width : 1 920 pixels
      Height : 816 pixels
      Display aspect ratio : 2.35:1
      Frame rate mode : Constant
      Frame rate : 23.976 (24000/1001) FPS
      Color space : YUV
      Chroma subsampling : 4:2:0
      Bit depth : 8 bits
      Scan type : Progressive
      Bits/(Pixel*Frame) : 0.215
      Stream size : 7.13 GiB (93%)
      Language : Korean
      Default : Yes
      Forced : No
      Color range : Limited
      Color primaries : BT.709
      Transfer characteristics : BT.709
      Matrix coefficients : BT.709Audio #1
      ID : 2
      Format : AC-3
      Format/Info : Audio Coding 3
      Commercial name : Dolby Digital
      Codec ID : A_AC3
      Duration : 2 h 6 min
      Bit rate mode : Constant
      Bit rate : 192 kb/s
      Channel(s) : 2 channels
      Channel layout : L R
      Sampling rate : 48.0 kHz
      Frame rate : 31.250 FPS (1536 SPF)
      Bit depth : 16 bits
      Compression mode : Lossy
      Stream size : 174 MiB (2%)
      Title : MVO [STEPonee]
      Language : Russian
      Service kind : Complete Main
      Default : Yes
      Forced : NoAudio #2
      ID : 3
      Format : AAC LC
      Format/Info : Advanced Audio Codec Low Complexity
      Codec ID : A_AAC-2
      Duration : 2 h 6 min
      Bit rate : 167 kb/s
      Channel(s) : 2 channels
      Channel layout : L R
      Sampling rate : 48.0 kHz
      Frame rate : 46.875 FPS (1024 SPF)
      Compression mode : Lossy
      Stream size : 151 MiB (2%)
      Title : MVO [HDRezka Studio]
      Language : Russian
      Default : No
      Forced : NoAudio #3
      ID : 4
      Format : E-AC-3
      Format/Info : Enhanced AC-3
      Commercial name : Dolby Digital Plus
      Codec ID : A_EAC3
      Duration : 2 h 6 min
      Bit rate mode : Constant
      Bit rate : 224 kb/s
      Channel(s) : 2 channels
      Channel layout : L R
      Sampling rate : 48.0 kHz
      Frame rate : 31.250 FPS (1536 SPF)
      Compression mode : Lossy
      Stream size : 203 MiB (3%)
      Language : Korean
      Service kind : Complete Main
      Default : No
      Forced : NoText #1
      ID : 5
      Format : UTF-8
      Codec ID : S_TEXT/UTF8
      Codec ID/Info : UTF-8 Plain Text
      Duration : 2 h 1 min
      Bit rate : 44 b/s
      Count of elements : 1357
      Stream size : 39.2 KiB (0%)
      Language : English
      Default : No
      Forced : NoText #2
      ID : 6
      Format : UTF-8
      Codec ID : S_TEXT/UTF8
      Codec ID/Info : UTF-8 Plain Text
      Duration : 2 h 5 min
      Bit rate : 87 b/s
      Count of elements : 1993
      Stream size : 80.2 KiB (0%)
      Language : Korean
      Default : No
      Forced : NoText #3
      ID : 7
      Format : UTF-8
      Codec ID : S_TEXT/UTF8
      Codec ID/Info : UTF-8 Plain Text
      Duration : 1 h 46 min
      Bit rate : 0 b/s
      Count of elements : 12
      Stream size : 172 Bytes (0%)
      Title : forced
      Language : Korean
      Default : No
      Forced : NoMenu
      00:00:00.000 : :Глава 01
      00:15:00.000 : :Глава 02
      00:30:00.000 : :Глава 03
      00:45:00.000 : :Глава 04
      01:00:00.000 : :Глава 05
      01:15:00.000 : :Глава 06
      01:30:00.000 : :Глава 07
      01:45:00.000 : :Глава 08
      02:00:00.000 : :Глава 09
      STEPonee - над озвучкой работали:
      роли озвучивали: Илья Хайко, Илья Кочетков, Олег Кондрашов, Натиа Макаридзе; перевод: ФСГ 'Do4U';
      обработка звука и монтаж: Илья Хайко; тайминг: Анна Кудинова

      Раздача обновлена: 08.09.2019, замена видеоряда на WEB-DL 1080p с Amazon; добавлены корейские субтитры
  • Чтобы скачать этот контент, Вам необходимо:
    1. Скачать и установить торрент-клиент [клик для Windows], (для мобильного найдите на Play Маркет).
    2. Кликнуть по [Скачать]


    Внимание.
    Если проверка ВЫ НЕ РОБОТ - не работает, значит Вы используете устаревший браузер.
    Установите актуальный браузер и повторно кликните по [Скачать]
    Безопасность: торрент-клиент разрешён АВ Касперского.

    [mail.asmlocator.ru].t665262.torrent 
    Торрент: Зарегистрирован [ 2019-09-21 04:25 ] · A7A07DD02A7A7CBDAB9B08DD8A4C22D4FD83B5F5

    Скачать .torrent

    Скачать

    20 KB

    Статус: проверено
    Скачан: 0 раз
    Размер: 7.65 GB
    terms.php
    [Профиль] [ЛС]
    Показать сообщения:    
    Ответить на тему

    Текущее время: 21-Янв 22:26

    Часовой пояс: UTC ± 0



    Вы не можете начинать темы
    Вы не можете отвечать на сообщения
    Вы не можете редактировать свои сообщения
    Вы не можете удалять свои сообщения
    Вы не можете голосовать в опросах
    Вы не можете прикреплять файлы к сообщениям
    Вы можете скачивать файлы
    Верим фактам, а не вранью Путина! Факт, что Правительство ведёт Россию к истреблению.
    Так как численность населения падает, даже не смотря на приток эмигрантов!
    Русская нация вымирает и вырождается, смешиваясь с эмигрантами!
    Факт, что военных и граждан предприятий заставляют голосовать за партию Единая Россия и Путина
    ПОД СТРАХОМ УВОЛЬНЕНИЯ!
    Нам не нужно Правительство, блокирующее личную жизнь, интернет, нарушающее сохранность данных.
    Все эти действия финансируются за счёт народа!