Орлиный остров / Остров орлов / Eagle Island (Матс Хельге Олссон / Mats Helge Olsson) [1986, Швеция, боевик, VHSRip] VO (Matosono) + Original Eng

Ответить на тему
Статистика раздачи
Размер:  953 MB   |    Зарегистрирован:  28 дней   |    Скачан:  0 раз

Полного источника не было: Никогда

 
   
 
 
Автор Сообщение

star21 ®

Пол: Женский

Стаж: 3 года 11 месяцев

Сообщений: 551988

Откуда: Екатеринбург

Создавать темы 15-Сен-2019 20:50

[Цитировать]

Орлиный остров / Остров орлов / Eagle Island Страна: Швеция
Жанр: боевик
Год выпуска: 1986
Продолжительность: 01:30:13Перевод: Одноголосый закадровый (Matosono)
Субтитры: английские (hardsub)
Оригинальная аудиодорожка: английский
Режиссер: Матс Хельге Олссон / Mats Helge OlssonВ ролях: Том О’Рурк, Терри Д. Сиго, Саммер Томас, Лиза Робинсон, Тимоти Эрл, Мэтс Хадден, Уилли Бохлом, Жан Нюгрен, Стэн Бостром, Роджер ПерссонОписание: На шведскую военную базу, находящуюся на одиноком, отдалённом от цивилизации острове, нападают ниндзя советского КГБ. В центре этой заварушки оказываются две миловидные девушки-орнитолога, прибывшие на остров изучать местную пернатую фауну. Смогут ли они выбраться из кровавой мясорубки, устроенной русскими головорезами?Мозговыносящий независимый боевик с советскими ниндзя, советскими моряками, дворовым кунг-фу и пальбой во все стороны. Снял это чудо Матс Олссон, классик шведского независимого кино, снявший более ста фильмов и явно повёрнутый на тематике ниндзя и злых русских. До этого он снял нуар про битву с КГБ «Роковой секрет» и самый успешный шведский независимый фильм - «Миссию ниндзя», наполенный просто блистательной идиотией: в нём шведские ниндзя крошили русских солдат на секретной базе в средневековом замке под Ленинградом. Позже он выдал боевик с прекрасным названием «Русский терминатор», который, увы, оказался унылым. Так что предлагаем запомнить Матса Олссона именно по «Миссии ниндзя» и «Орлиному острову».Доп. информация: Релиз группы ☭ НИИ клюквоведения им. Бориса Бритвы ☭
Сэмпл: https://yadi.sk/i/zGe_I7RHtVtABgКачество видео: VHSRip
Формат видео: AVIВидео: 1200 Кбит/сек, 640*480 (4:3), в 25,000 кадров/сек, xvid
Аудио 1: 128 Кбит/сек, 48,0 КГц, 16 бит, 2 канала, AC-3 (Dolby Digital)
Аудио 2: 128 Кбит/сек, 48,0 КГц, 2 канала, MPEG Audio (MP3) (Version 1) (Layer 3) (Joint stereo / MS Stereo)

MediaInfo

GeneralComplete name               : D:\клюква\ПЕРЕВОДЫ\орлиный остров\Eagle island.aviFormat                      : AVIFormat/Info                 : Audio Video InterleaveFile size                   : 953 MiBDuration                    : 1 h 30 minOverall bit rate            : 1 471 kb/sWriting application         : VirtualDubMod 1.5.10.2 (build 2540/release)Writing library             : VirtualDubMod build 2540/releaseVideoID                          : 0Format                      : xvidCodec ID                    : xvidDuration                    : 1 h 30 minBit rate                    : 1 200 kb/sWidth                       : 640 pixelsHeight                      : 480 pixelsDisplay aspect ratio        : 4:3Frame rate                  : 25.000 FPSBits/(Pixel*Frame)          : 0.156Stream size                 : 778 MiB (82%)Audio #1ID                          : 1Format                      : AC-3Format/Info                 : Audio Coding 3Format settings, Endianness : BigCodec ID                    : 2000Duration                    : 1 h 30 minBit rate mode               : ConstantBit rate                    : 128 kb/sChannel(s)                  : 2 channelsChannel positions           : Front: L RSampling rate               : 48.0 kHzFrame rate                  : 31.250 FPS (1536 spf)Bit depth                   : 16 bitsCompression mode            : LossyDelay relative to video     : 10 s 0 msStream size                 : 82.7 MiB (9%)Alignment                   : Split accross interleavesInterleave, duration        : 40  ms (1.00 video frame)Interleave, preload duratio : 500  msTitle                       : Русский(Мато)Service kind                : Complete MainAudio #2ID                          : 2Format                      : MPEG AudioFormat version              : Version 1Format profile              : Layer 3Mode                        : Joint stereoMode extension              : MS StereoCodec ID                    : 55Codec ID/Hint               : MP3Duration                    : 1 h 30 minBit rate mode               : ConstantBit rate                    : 128 kb/sChannel(s)                  : 2 channelsSampling rate               : 48.0 kHzCompression mode            : LossyStream size                 : 83.0 MiB (9%)Alignment                   : Split accross interleavesInterleave, duration        : 40  ms (1.00 video frame)Interleave, preload duratio : 500  msTitle                       : English(original)                                   : English

Скриншот c названием фильма

[/URL] [/url]
[url=https://fastpic.ru/view/106/2019/0908/e6e72c79df734719ef7062a0a9503fa5.png.html]

Скриншоты

Чтобы скачать этот контент, Вам необходимо:
1. Скачать и установить торрент-клиент [клик для Windows], (для мобильного найдите на Play Маркет).
2. Кликнуть по [Скачать]


Внимание.
Если проверка ВЫ НЕ РОБОТ - не работает, значит Вы используете устаревший браузер.
Установите актуальный браузер и повторно кликните по [Скачать]
Безопасность: торрент-клиент разрешён АВ Касперского.

[asmlocator.ru].t664538.torrent 
Торрент: Зарегистрирован [ 2019-09-15 20:50 ] · 3FED3AF05E37654DB63399F22272B89944030690

Скачать .torrent

Скачать

19 KB

Статус: проверено
Скачан: 0 раз
Размер: 953 MB
terms.php
[Профиль] [ЛС]
Показать сообщения:    
Ответить на тему

Текущее время: 14-Окт 07:56

Часовой пояс: UTC ± 0



Вы не можете начинать темы
Вы не можете отвечать на сообщения
Вы не можете редактировать свои сообщения
Вы не можете удалять свои сообщения
Вы не можете голосовать в опросах
Вы не можете прикреплять файлы к сообщениям
Вы можете скачивать файлы
Верим фактам, а не вранью Путина! Факт, что Правительство ведёт Россию к истреблению.
Так как численность населения падает, даже не смотря на приток эмигрантов!
Русская нация вымирает и вырождается, смешиваясь с эмигрантами!
Факт, что военных и граждан предприятий заставляют голосовать за партию Единая Россия и Путина
ПОД СТРАХОМ УВОЛЬНЕНИЯ!
Нам не нужно Правительство, блокирующее личную жизнь, интернет, нарушающее сохранность данных.
Все эти действия финансируются за счёт народа!