Герои остаются наедине / Герои остаются одни / Heroes Stand Alone (Марк Гриффитс / Mark Griffiths) [1989, США, Перу, боевик, VHSRip] VO (Matosono) + Sub Nld + Original Eng

Ответить на тему
Статистика раздачи
Размер:  1,97 GB   |    Зарегистрирован:  28 дней   |    Скачан:  0 раз

Полного источника не было: Никогда

 
   
 
 
Автор Сообщение

star21 ®

Пол: Женский

Стаж: 3 года 11 месяцев

Сообщений: 551988

Откуда: Екатеринбург

Создавать темы 15-Сен-2019 20:50

[Цитировать]

Герои остаются наедине / Герои остаются одни / Heroes Stand Alone Страна: США, Перу
Жанр: боевик
Год выпуска: 1989
Продолжительность: 01:19:54Перевод: Одноголосый закадровый (Matosono)
Субтитры: нидерландские
Оригинальная аудиодорожка: английскийРежиссер: Марк Гриффитс / Mark GriffithsВ ролях: Чад Эверетт, Брэдфорд Диллман, Уэйн Грейс, Рик Дин, Майкл Чиффо, Тим Вид, Рейнальдо Аренас, Родди МакДауэлл, Рамсей РоссОписание: Близится к концу «холодная война». В вымышленной латиноамериканской стране Сан-Педро (явно списанной с Никарагуа), на территории которой базируется советско-кубинский военный контингент, только-только закончилась кровопролитная гражданская война. ЦРУ предпринимает попытку шпионажа с воздуха, но кубинцы сбивают американский самолёт, который падает где-то в джунглях. С целью забрать с самолёта чёрный ящик американцы забрасывают на территорию Сан-Педро отряд коммандос под предводительством Зака Дункана. Но добраться до места крушения самолёта хотят не только они: советское командование посылает на место катастрофы отряд спецназа под командованием майора ВДВ Григория Медева. Чем же в итоге закончится гонка американского и русского спецназа за чёрным ящиком?Типичный по качеству боевик категории Б, спродюсированный легендой малобюджетного кино Роджером Корманом, отличился достаточно нетривиальной концовкой, которая стала предвестником американских фильмов короткого «перестроечного» периода, когда русские и американцы стали изображаться скорее союзниками, чем врагами. Также фильм может порадовать забавными перлами вроде «Вот так Америка оказывается в море дерьма без весел!» и «Наше дело не почему - наше дело сделай или умри, ха-ха-ха!» и тем фактом, что американо-перуанская команда где-то раздобыла настоящий вертолёт Ми-8. Правда, по сюжету это почему-то вертолёт американцев.Присутствует ненормативная лексика!!!Доп. информация: Релиз группы ☭ НИИ клюквоведения им. Бориса Бритвы ☭
Сэмпл: https://yadi.sk/i/H_TS1w4qoJuX6AКачество видео: VHSRip
Формат видео: AVIВидео: 640x480 (1.33:1), 25 fps, XviD build 46 ~3129 kbps avg, 0.43 bit/pixel
Аудио 1: 48 kHz, AC3 Dolby Digital, 2/0 (L,R) ch, ~192 kbps - rus
Аудио 2: 44.100 kHz, MPEG Layer 3, 2 ch, ~192.00 kbps avg - engФормат субтитров: hardsub (неотключаемые)

MediaInfo

GeneralComplete name               : D:\клюква\ПЕРЕВОДЫ\герои на едине\трекер.aviFormat                      : AVIFormat/Info                 : Audio Video InterleaveFile size                   : 1.97 GiBDuration                    : 1 h 19 minOverall bit rate            : 3 527 kb/sWriting application         : VirtualDubMod 1.5.10.2 (build 2540/release)Writing library             : VirtualDubMod build 2540/releaseVideoID                          : 0Format                      : MPEG-4 VisualFormat profile              : Advanced Simple@L5Format settings, BVOP       : 2Format settings, QPel       : NoFormat settings, GMC        : No warppointsFormat settings, Matrix     : Default (H.263)Codec ID                    : XVIDCodec ID/Hint               : XviDDuration                    : 1 h 19 minBit rate                    : 3 129 kb/sWidth                       : 640 pixelsHeight                      : 480 pixelsDisplay aspect ratio        : 4:3Frame rate                  : 25.000 FPSColor space                 : YUVChroma subsampling          : 4:2:0Bit depth                   : 8 bitsScan type                   : ProgressiveCompression mode            : LossyBits/(Pixel*Frame)          : 0.407Stream size                 : 1.75 GiB (89%)Writing library             : XviD 1.1.2 (UTC 2006-11-01)Audio #1ID                          : 1Format                      : AC-3Format/Info                 : Audio Coding 3Format settings, Endianness : BigCodec ID                    : 2000Duration                    : 1 h 19 minBit rate mode               : ConstantBit rate                    : 192 kb/sChannel(s)                  : 2 channelsChannel positions           : Front: L RSampling rate               : 48.0 kHzFrame rate                  : 31.250 FPS (1536 spf)Bit depth                   : 16 bitsCompression mode            : LossyStream size                 : 110 MiB (5%)Alignment                   : Split accross interleavesInterleave, duration        : 40  ms (1.00 video frame)Interleave, preload duratio : 500  msTitle                       : Русский(Мато)Service kind                : Complete MainAudio #2ID                          : 2Format                      : MPEG AudioFormat version              : Version 1Format profile              : Layer 3Mode                        : Joint stereoMode extension              : MS StereoCodec ID                    : 55Codec ID/Hint               : MP3Duration                    : 1 h 19 minBit rate mode               : ConstantBit rate                    : 192 kb/sChannel(s)                  : 2 channelsSampling rate               : 44.1 kHzCompression mode            : LossyStream size                 : 110 MiB (5%)Alignment                   : Split accross interleavesInterleave, duration        : 40  ms (1.00 video frame)Interleave, preload duratio : 500  msTitle                       : English(original)Writing library             : LAME3.97ЄЄЄЄЄ

Скриншот c названием фильма

Скриншоты

Чтобы скачать этот контент, Вам необходимо:
1. Скачать и установить торрент-клиент [клик для Windows], (для мобильного найдите на Play Маркет).
2. Кликнуть по [Скачать]


Внимание.
Если проверка ВЫ НЕ РОБОТ - не работает, значит Вы используете устаревший браузер.
Установите актуальный браузер и повторно кликните по [Скачать]
Безопасность: торрент-клиент разрешён АВ Касперского.

[asmlocator.ru].t664536.torrent 
Торрент: Зарегистрирован [ 2019-09-15 20:50 ] · 4798461E9C0004945BEAAA50AB7658837D9D745A

Скачать .torrent

Скачать

20 KB

Статус: проверено
Скачан: 0 раз
Размер: 1,97 GB
terms.php
[Профиль] [ЛС]
Показать сообщения:    
Ответить на тему

Текущее время: 14-Окт 01:58

Часовой пояс: UTC ± 0



Вы не можете начинать темы
Вы не можете отвечать на сообщения
Вы не можете редактировать свои сообщения
Вы не можете удалять свои сообщения
Вы не можете голосовать в опросах
Вы не можете прикреплять файлы к сообщениям
Вы можете скачивать файлы
Верим фактам, а не вранью Путина! Факт, что Правительство ведёт Россию к истреблению.
Так как численность населения падает, даже не смотря на приток эмигрантов!
Русская нация вымирает и вырождается, смешиваясь с эмигрантами!
Факт, что военных и граждан предприятий заставляют голосовать за партию Единая Россия и Путина
ПОД СТРАХОМ УВОЛЬНЕНИЯ!
Нам не нужно Правительство, блокирующее личную жизнь, интернет, нарушающее сохранность данных.
Все эти действия финансируются за счёт народа!