Карма / Karma (Ник Саймон / Nick Simon) [2018, США, Ужасы, WEB-DLRip] MVO (ТВ3) + Original Eng

Ответить на тему
Статистика раздачи
Размер:  1,45 GB   |    Зарегистрирован:  28 дней   |    Скачан:  1 раз

Полного источника не было: 32 минуты

 
   
 
 
Автор Сообщение

star21 ®

Пол: Женский

Стаж: 3 года 11 месяцев

Сообщений: 551988

Откуда: Екатеринбург

Создавать темы 15-Сен-2019 14:30

[Цитировать]

Карма / Karma Страна: США
Жанр: Ужасы
Год выпуска: 2018
Продолжительность: 01:25:34Перевод: Профессиональный (многоголосый закадровый) ТВ3
Субтитры: нет
Оригинальная аудиодорожка: английскийРежиссер: Ник Саймон / Nick SimonВ ролях: Мандела Ван Пиблз, Бритни Сарпи, Каноа Гу, Сандра Цеваллос, Тим Расс, Мег Деуснер, Тони Амендола, А. Тодд Бейкер, Сара Морган, Арлин БалуютОписание: Когда семейный бюджет начинает обрастать долгами, Мэнни решает устроиться на работу к отцу своей жены. Дело не для слабонервных - нужно выселять должников из их домов. После того, как очередным из них оказывается его одноклассник, у которого умирает мать, Мэнни предстает перед нелегким выбором. Сразу после этого происходят пугающие события, и герой понимает, что ни к чему хорошему это не приведет.Сэмпл: http://multi-up.com/1240021Качество видео: WEB-DLRip
Формат видео: AVIВидео: MPEG4, XviD, 720x400 (16:9), 23.976 fps, 1 843 Kbps (0.267 bit/pixel)
Аудио: AC-3, 48.0 KHz, 2 ch, 192 Kbps, CBR - русский
Аудио 2: AC-3, 48.0 KHz, 6 ch, 384 Kbps, CBR - английский

MediaInfo

ОбщееПолное имя                               : F:\Карма.aviФормат                                   : AVIФормат/Информация                        : Audio Video InterleaveРазмер файла                             : 1,45 ГбайтПродолжительность                        : 1 ч. 25 м.Общий поток                              : 2433 Кбит/секНазвание фильма                          : Карма / Karma (2018)Программа кодирования                    : VirtualDubMod 1.5.10.2 (build 2540/release)Библиотека кодирования                   : VirtualDubMod build 2540/releaseАвторское право                          : miha2154ВидеоИдентификатор                            : 0Формат                                   : MPEG-4 VisualПрофиль формата                          : Advanced Simple@L5Настройки формата                        : BVOP1 / Custom MatrixПараметр BVOP формата                    : 1Параметр QPel формата                    : НетПараметр GMC формата                     : Без точки переходаПараметр матрицы формата                 : ВыборочнаяИдентификатор кодека                     : XVIDИдентификатор кодека/Подсказка           : XviDПродолжительность                        : 1 ч. 25 м.Битрейт                                  : 1843 Кбит/секШирина                                   : 720 пикселейВысота                                   : 400 пикселейСоотношение сторон                       : 16:9Частота кадров                           : 23,976 (24000/1001) кадра/секЦветовое пространство                    : YUVСубдискретизация насыщенности            : 4:2:0Битовая глубина                          : 8 битТип развёртки                            : ПрогрессивнаяМетод сжатия                             : С потерямиБит/(Пиксели*Кадры)                      : 0.267Размер потока                            : 1,10 Гбайт (76%)Библиотека кодирования                   : XviD 65Аудио #1Идентификатор                            : 1Формат                                   : AC-3Формат/Информация                        : Audio Coding 3Коммерческое название                    : Dolby DigitalИдентификатор кодека                     : 2000Продолжительность                        : 1 ч. 25 м.Вид битрейта                             : ПостоянныйБитрейт                                  : 192 Кбит/секКаналы                                   : 2 каналаChannel layout                           : L RЧастота                                  : 48,0 КГцЧастота кадров                           : 31,250 кадров/сек (1536 SPF)Битовая глубина                          : 16 битМетод сжатия                             : С потерямиРазмер потока                            : 118 Мбайт (8%)Выравнивание                             : Разделение по промежуткамПродолжительность промежутка             : 42  мс. (1,00 видеокадр)Время предзагрузки промежутка            : 500  мс.Заголовок                                : Профессиональный (многоголосый, закадровый) ТВ3ServiceKind/String                       : Complete MainАудио #2Идентификатор                            : 2Формат                                   : AC-3Формат/Информация                        : Audio Coding 3Коммерческое название                    : Dolby DigitalИдентификатор кодека                     : 2000Продолжительность                        : 1 ч. 25 м.Вид битрейта                             : ПостоянныйБитрейт                                  : 384 Кбит/секКаналы                                   : 6 каналовChannel layout                           : L R C LFE Ls RsЧастота                                  : 48,0 КГцЧастота кадров                           : 31,250 кадров/сек (1536 SPF)Битовая глубина                          : 16 битМетод сжатия                             : С потерямиРазмер потока                            : 235 Мбайт (16%)Выравнивание                             : Разделение по промежуткамПродолжительность промежутка             : 42  мс. (1,00 видеокадр)Время предзагрузки промежутка            : 500  мс.Заголовок                                : АнглийскийServiceKind/String                       : Complete Main

Скриншот c названием фильма

Скриншоты

Чтобы скачать этот контент, Вам необходимо:
1. Скачать и установить торрент-клиент [клик для Windows], (для мобильного найдите на Play Маркет).
2. Кликнуть по [Скачать]


Внимание.
Если проверка ВЫ НЕ РОБОТ - не работает, значит Вы используете устаревший браузер.
Установите актуальный браузер и повторно кликните по [Скачать]
Безопасность: торрент-клиент разрешён АВ Касперского.

[asmlocator.ru].t664474.torrent 
Торрент: Зарегистрирован [ 2019-09-15 14:30 ] · 49341A5AB8DEFAC2A7C0449AA06D2464993F6D8B

Скачать .torrent

Скачать

15 KB

Статус: проверено
Скачан: 1 раз
Размер: 1,45 GB
terms.php
[Профиль] [ЛС]
Показать сообщения:    
Ответить на тему

Текущее время: 14-Окт 01:02

Часовой пояс: UTC ± 0



Вы не можете начинать темы
Вы не можете отвечать на сообщения
Вы не можете редактировать свои сообщения
Вы не можете удалять свои сообщения
Вы не можете голосовать в опросах
Вы не можете прикреплять файлы к сообщениям
Вы можете скачивать файлы
Верим фактам, а не вранью Путина! Факт, что Правительство ведёт Россию к истреблению.
Так как численность населения падает, даже не смотря на приток эмигрантов!
Русская нация вымирает и вырождается, смешиваясь с эмигрантами!
Факт, что военных и граждан предприятий заставляют голосовать за партию Единая Россия и Путина
ПОД СТРАХОМ УВОЛЬНЕНИЯ!
Нам не нужно Правительство, блокирующее личную жизнь, интернет, нарушающее сохранность данных.
Все эти действия финансируются за счёт народа!