Посмотри, кто там разговаривает-2 / Уж кто-бы говорил-2 / Вы только послушайте 2 / Look Who\'s Talking Too (Эми Хекерлинг / Amy Heckerling) [1990, США, комедия, мелодрама, семейный, VHSRip] [FullScreen] VO (МП Мега)

Ответить на тему
Статистика раздачи
Размер:  3,39 GB   |    Зарегистрирован:  29 дней   |    Скачан:  0 раз

Полного источника не было: Никогда

 
   
 
 
Автор Сообщение

star21 ®

Пол: Женский

Стаж: 3 года 11 месяцев

Сообщений: 551988

Откуда: Екатеринбург

Создавать темы 15-Сен-2019 05:00

[Цитировать]

Посмотри, кто там разговаривает-2 / Уж кто-бы говорил-2 / Вы только послушайте 2 / Look Who's Talking Too Страна: США
Жанр: комедия, мелодрама, семейный
Год выпуска: 1990
Продолжительность: 01:17:23Перевод: Одноголосый закадровый МП Мега
Субтитры: нет
Режиссер: Эми Хекерлинг / Amy HeckerlingВ ролях: Керсти Элли, Джон Траволта, Олимпия Дукакис, Элиас Котеас, Брюс Уиллис, Розанна Барр, Дэймон Ваянс, Гильберт Готтфрид, Мэл Брукс, Лорни Сассмен, Меган Милнер и др.Описание: В этом забавном фильме-продолжении маленький Майк понимает, что добился своего, соединив вместе маму (Элли) и выбранного им папу (Траволта). Мечта сбылась, но вместо тихого семейного счастья Майка ждет самый большой сюрприз в его жизни - маленькая сестричка. (Иванов М.)Доп. информация: Оцифровка VHS (личный архив) и получение VHSRip alenavova Эксклюзив для rutracker.org. При размещении данного релиза на других сайтах ссылка на автора alenavova обязательна.Релиз Сэмпл: https://yadi.sk/d/JRW4NBEJ79VhDAКачество видео: VHSRip
Формат видео: MPGВидео: MPEG2 Video 720x576 (4:3) 25fps bit rate 6 279 kb/s
Аудио: MPEG Audio 48000Hz 192kbps

MediaInfo

Вы только послушайте-2 - Look Who's Talking Too [by alenavova].mpgFormat                      : MPEG-PSFile size                   : 3.39 GiBDuration                    : 1 h 17 minOverall bit rate mode       : VariableOverall bit rate            : 6 279 kb/sVideoID                          : 224 (0xE0)Format                      : MPEG VideoFormat version              : Version 2Format profile              : Main@MainFormat settings             : CustomMatrix / BVOPFormat settings, BVOP       : YesFormat settings, Matrix     : CustomFormat settings, GOP        : M=3, N=15Duration                    : 1 h 17 minBit rate mode               : VariableBit rate                    : 6 000 kb/sWidth                       : 720 pixelsHeight                      : 576 pixelsDisplay aspect ratio        : 4:3Frame rate                  : 25.000 FPSStandard                    : PALColor space                 : YUVChroma subsampling          : 4:2:0Bit depth                   : 8 bitsScan type                   : ProgressiveCompression mode            : LossyBits/(Pixel*Frame)          : 0.579Time code of first frame    : 00:00:00:00Time code source            : Group of pictures headerGOP, Open/Closed            : OpenGOP, Open/Closed of first f : ClosedStream size                 : 3.22 GiB (95%)AudioID                          : 192 (0xC0)Format                      : MPEG AudioFormat version              : Version 1Format profile              : Layer 2Duration                    : 1 h 17 minBit rate mode               : ConstantBit rate                    : 192 kb/sChannel(s)                  : 2 channelsSampling rate               : 48.0 kHzFrame rate                  : 41.667 FPS (1152 SPF)Compression mode            : LossyDelay relative to video     : 70 msStream size                 : 106 MiB (3%)

Скриншоты

Чтобы скачать этот контент, Вам необходимо:
1. Скачать и установить торрент-клиент [клик для Windows], (для мобильного найдите на Play Маркет).
2. Кликнуть по [Скачать]


Внимание.
Если проверка ВЫ НЕ РОБОТ - не работает, значит Вы используете устаревший браузер.
Установите актуальный браузер и повторно кликните по [Скачать]
Безопасность: торрент-клиент разрешён АВ Касперского.

[asmlocator.ru].t664280.torrent 
Торрент: Зарегистрирован [ 2019-09-15 05:00 ] · 4FCB4D7C96D143F734A1B3CD618A623485CCA81D

Скачать .torrent

Скачать

17 KB

Статус: проверено
Скачан: 0 раз
Размер: 3,39 GB
terms.php
[Профиль] [ЛС]
Показать сообщения:    
Ответить на тему

Текущее время: 14-Окт 07:45

Часовой пояс: UTC ± 0



Вы не можете начинать темы
Вы не можете отвечать на сообщения
Вы не можете редактировать свои сообщения
Вы не можете удалять свои сообщения
Вы не можете голосовать в опросах
Вы не можете прикреплять файлы к сообщениям
Вы можете скачивать файлы
Верим фактам, а не вранью Путина! Факт, что Правительство ведёт Россию к истреблению.
Так как численность населения падает, даже не смотря на приток эмигрантов!
Русская нация вымирает и вырождается, смешиваясь с эмигрантами!
Факт, что военных и граждан предприятий заставляют голосовать за партию Единая Россия и Путина
ПОД СТРАХОМ УВОЛЬНЕНИЯ!
Нам не нужно Правительство, блокирующее личную жизнь, интернет, нарушающее сохранность данных.
Все эти действия финансируются за счёт народа!