(Noise, HNW) [4CD] Mauthausen Orchestra - :First Essay: Sexual Depravity And Pleasant Atrocities - 2015 (1983-86), FLAC (tracks+.cue), lossless

Ответить на тему
Статистика раздачи
Размер:  880 MB   |    Зарегистрирован:  10 месяцев   |    Скачан:  0 раз

Полного источника не было: Никогда

 
   
 
 
Автор Сообщение

star21 ®

Пол: Женский

Стаж: 4 года 8 месяцев

Сообщений: 551945

Откуда: Екатеринбург

Создавать темы 11-Сен-2019 00:30

[Цитировать]

Mauthausen Orchestra / :First Essay: Sexual Depravity And Pleasant Atrocities Жанр: Noise, HNW
Носитель: CD
Страна-производитель диска (релиза): italy
Год издания: 2015
Издатель (лейбл): Urashima
Номер по каталогу: USHI 001_004
Страна исполнителя (группы): italy
Аудиокодек: FLAC (*.flac)
Тип рипа: tracks+.cue
Продолжительность: 3:16:32
Источник: slsk
Наличие сканов в содержимом раздачи: нет
Треклист:

CD 1 - Anal Perversions 1985

01 Untitled 23:13
02 Untitled 21:50
Продолжительность: 45:02

log

Exact Audio Copy V1.0 beta 6 from 9. April 2015EAC extraction logfile from 3. February 2019, 14:25Mauthausen Orchestra / Anal PerversionsUsed drive  : ATAPI   iHAS124   B   Adapter: 1  ID: 0Read mode               : SecureUtilize accurate stream : YesDefeat audio cache      : YesMake use of C2 pointers : NoRead offset correction                      : 6Overread into Lead-In and Lead-Out          : NoFill up missing offset samples with silence : YesDelete leading and trailing silent blocks   : NoNull samples used in CRC calculations       : YesUsed interface                              : Native Win32 interface for Win NT & 2000Gap handling                                : Appended to previous trackUsed output format              : User Defined EncoderSelected bitrate                : 1024 kBit/sQuality                         : HighAdd ID3 tag                     : NoCommand line compressor         : C:\Program Files (x86)\Exact Audio Copy\FLAC\FLAC.EXEAdditional command line options : -8 -e -p -V -T "ARTIST=%artist%" -T "TITLE=%title%" -T "ALBUM=%albumtitle%" -T "DATE=%year%" -T "TRACKNUMBER=%tracknr%" -T "GENRE=%genre%" -T "PERFORMER=%albuminterpret%" -T "COMPOSER=%composer%" %haslyrics%--tag-from-file=LYRICS="%lyricsfile%"%haslyrics% -T "ALBUMARTIST=%albumartist%" -T "DISCNUMBER=%cdnumber%" -T "TOTALDISCS=%totalcds%" -T "TOTALTRACKS=%numtracks%" -T "COMMENT=%comment%" %source% -o %dest%TOC of the extracted CD     Track |   Start  |  Length  | Start sector | End sector    ---------------------------------------------------------        1  |  0:00.00 | 23:12.74 |         0    |   104473        2  | 23:12.74 | 21:50.01 |    104474    |   202724Track  1     Filename G:\musik\_rips\Mauthausen Orchestra - Anal Perversions\01 - Anal Perversions (1).wav     Pre-gap length  0:00:02.00     Peak level 22.6 %     Extraction speed 2.5 X     Track quality 100.0 %     Test CRC 0FC46D9D     Copy CRC 0FC46D9D     Track not present in AccurateRip database     Copy OKTrack  2     Filename G:\musik\_rips\Mauthausen Orchestra - Anal Perversions\02 - Anal Perversions (2).wav     Pre-gap length  0:00:02.00     Peak level 21.2 %     Extraction speed 3.4 X     Track quality 100.0 %     Test CRC 0D981346     Copy CRC 0D981346     Track not present in AccurateRip database     Copy OKNone of the tracks are present in the AccurateRip databaseNo errors occurredEnd of status report---- CUETools DB Plugin V2.1.6[CTDB TOCID: O1vB0WRSTv1wcf1unnk4dwlucok-] foundSubmit result: O1vB0WRSTv1wcf1unnk4dwlucok- has been confirmedTrack | CTDB Status  1   | (3/3) Accurately ripped  2   | (3/3) Accurately ripped==== Log checksum E1C4BFCD22F561C569092C50161AB1E10A8A11BF61AE9EB7C394BB7DD13D6716 ====

cue

REM GENRE NoiseREM DATE 1985REM DISCID 130A8F02REM COMMENT "ExactAudioCopy v1.0b6"PERFORMER "Mauthausen Orchestra"TITLE "Anal Perversions"FILE "101 - Untitled.wav" WAVE  TRACK 01 AUDIO    TITLE "Untitled"    PERFORMER "Mauthausen Orchestra"    INDEX 01 00:00:00  TRACK 02 AUDIO    TITLE "Untitled"    PERFORMER "Mauthausen Orchestra"    INDEX 00 23:10:74FILE "102 - Untitled.wav" WAVE    INDEX 01 00:00:00

CD 2 - Host Sodomy 1986

01 Untitled 23:08
02 Untitled 18:06
Продолжительность: 41:14

log

Exact Audio Copy V1.0 beta 6 from 9. April 2015EAC extraction logfile from 3. February 2019, 14:56Mauthausen Orchestra / Host SodomyUsed drive  : ATAPI   iHAS124   B   Adapter: 1  ID: 0Read mode               : SecureUtilize accurate stream : YesDefeat audio cache      : YesMake use of C2 pointers : NoRead offset correction                      : 6Overread into Lead-In and Lead-Out          : NoFill up missing offset samples with silence : YesDelete leading and trailing silent blocks   : NoNull samples used in CRC calculations       : YesUsed interface                              : Native Win32 interface for Win NT & 2000Gap handling                                : Appended to previous trackUsed output format              : User Defined EncoderSelected bitrate                : 1024 kBit/sQuality                         : HighAdd ID3 tag                     : NoCommand line compressor         : C:\Program Files (x86)\Exact Audio Copy\FLAC\FLAC.EXEAdditional command line options : -8 -e -p -V -T "ARTIST=%artist%" -T "TITLE=%title%" -T "ALBUM=%albumtitle%" -T "DATE=%year%" -T "TRACKNUMBER=%tracknr%" -T "GENRE=%genre%" -T "PERFORMER=%albuminterpret%" -T "COMPOSER=%composer%" %haslyrics%--tag-from-file=LYRICS="%lyricsfile%"%haslyrics% -T "ALBUMARTIST=%albumartist%" -T "DISCNUMBER=%cdnumber%" -T "TOTALDISCS=%totalcds%" -T "TOTALTRACKS=%numtracks%" -T "COMMENT=%comment%" %source% -o %dest%TOC of the extracted CD     Track |   Start  |  Length  | Start sector | End sector    ---------------------------------------------------------        1  |  0:00.00 | 23:07.74 |         0    |   104098        2  | 23:07.74 | 18:06.16 |    104099    |   185564Track  1     Filename G:\musik\_rips\Mauthausen Orchestra - Host Sodomy\01 - Host Sodomy (1).wav     Pre-gap length  0:00:02.00     Peak level 26.6 %     Extraction speed 2.5 X     Track quality 100.0 %     Test CRC E4EC0A48     Copy CRC E4EC0A48     Track not present in AccurateRip database     Copy OKTrack  2     Filename G:\musik\_rips\Mauthausen Orchestra - Host Sodomy\02 - Host Sodomy (2).wav     Pre-gap length  0:00:02.00     Peak level 27.8 %     Extraction speed 3.3 X     Track quality 100.0 %     Test CRC 5531565C     Copy CRC 5531565C     Track not present in AccurateRip database     Copy OKNone of the tracks are present in the AccurateRip databaseNo errors occurredEnd of status report---- CUETools DB Plugin V2.1.6[CTDB TOCID: Y5Qeh..wo_nyINNx4rUZuqMraDU-] foundSubmit result: Y5Qeh..wo_nyINNx4rUZuqMraDU- has been confirmedTrack | CTDB Status  1   | (3/3) Accurately ripped  2   | (3/3) Accurately ripped==== Log checksum 33086BD896EE47F9EDAD6D07C68D7FAAA995D047BB434EA24ECA56E6EF9FB906 ====

cue

REM GENRE NoiseREM DATE 1986REM DISCID 1709AA02REM COMMENT "ExactAudioCopy v1.0b6"PERFORMER "Mauthausen Orchestra"TITLE "Host Sodomy"FILE "201 - Untitled.wav" WAVE  TRACK 01 AUDIO    TITLE "Untitled"    PERFORMER "Mauthausen Orchestra"    INDEX 01 00:00:00  TRACK 02 AUDIO    TITLE "Untitled"    PERFORMER "Mauthausen Orchestra"    INDEX 00 23:05:74FILE "202 - Untitled.wav" WAVE    INDEX 01 00:00:00

CD 3 - Bloodyminded 1984

01 Untitled 24:33
02 Untitled 16:11
03 Untitled 8:17
04 Untitled 5:11
Продолжительность: 54:11

log

Exact Audio Copy V1.0 beta 6 from 9. April 2015EAC extraction logfile from 5. February 2019, 0:16Mauthausen Orchestra / BloodymindedUsed drive  : ATAPI   iHAS124   B   Adapter: 1  ID: 0Read mode               : SecureUtilize accurate stream : YesDefeat audio cache      : YesMake use of C2 pointers : NoRead offset correction                      : 6Overread into Lead-In and Lead-Out          : NoFill up missing offset samples with silence : YesDelete leading and trailing silent blocks   : NoNull samples used in CRC calculations       : YesUsed interface                              : Native Win32 interface for Win NT & 2000Gap handling                                : Appended to previous trackUsed output format              : User Defined EncoderSelected bitrate                : 1024 kBit/sQuality                         : HighAdd ID3 tag                     : NoCommand line compressor         : C:\Program Files (x86)\Exact Audio Copy\FLAC\FLAC.EXEAdditional command line options : -8 -e -p -V -T "ARTIST=%artist%" -T "TITLE=%title%" -T "ALBUM=%albumtitle%" -T "DATE=%year%" -T "TRACKNUMBER=%tracknr%" -T "GENRE=%genre%" -T "PERFORMER=%albuminterpret%" -T "COMPOSER=%composer%" %haslyrics%--tag-from-file=LYRICS="%lyricsfile%"%haslyrics% -T "ALBUMARTIST=%albumartist%" -T "DISCNUMBER=%cdnumber%" -T "TOTALDISCS=%totalcds%" -T "TOTALTRACKS=%numtracks%" -T "COMMENT=%comment%" %source% -o %dest%TOC of the extracted CD     Track |   Start  |  Length  | Start sector | End sector    ---------------------------------------------------------        1  |  0:00.00 | 24:32.50 |         0    |   110449        2  | 24:32.50 | 16:11.00 |    110450    |   183274        3  | 40:43.50 |  8:16.65 |    183275    |   220539        4  | 49:00.40 |  5:10.72 |    220540    |   243861Track  1     Filename G:\musik\_rips\Mauthausen Orchestra - Bloodyminded\01 - Untitled.wav     Pre-gap length  0:00:02.00     Peak level 28.7 %     Extraction speed 2.5 X     Track quality 100.0 %     Test CRC C9398A3D     Copy CRC C9398A3D     Track not present in AccurateRip database     Copy OKTrack  2     Filename G:\musik\_rips\Mauthausen Orchestra - Bloodyminded\02 - Untitled.wav     Pre-gap length  0:00:02.00     Peak level 26.0 %     Extraction speed 3.3 X     Track quality 100.0 %     Test CRC 56ADC7CA     Copy CRC 56ADC7CA     Track not present in AccurateRip database     Copy OKTrack  3     Filename G:\musik\_rips\Mauthausen Orchestra - Bloodyminded\03 - Untitled.wav     Pre-gap length  0:00:02.00     Peak level 27.1 %     Extraction speed 3.6 X     Track quality 100.0 %     Test CRC 25AE6C68     Copy CRC 25AE6C68     Track not present in AccurateRip database     Copy OKTrack  4     Filename G:\musik\_rips\Mauthausen Orchestra - Bloodyminded\04 - Untitled.wav     Pre-gap length  0:00:02.00     Peak level 20.9 %     Extraction speed 3.6 X     Track quality 100.0 %     Test CRC B9C67E6D     Copy CRC B9C67E6D     Track not present in AccurateRip database     Copy OKNone of the tracks are present in the AccurateRip databaseNo errors occurredEnd of status report---- CUETools DB Plugin V2.1.6[CTDB TOCID: ErjI7tuuKfvGD3TYFcjVry0s1Vs-] foundSubmit result: ErjI7tuuKfvGD3TYFcjVry0s1Vs- has been confirmedTrack | CTDB Status  1   | (3/3) Accurately ripped  2   | (3/3) Accurately ripped  3   | (3/3) Accurately ripped  4   | (3/3) Accurately ripped==== Log checksum 34F6232BD6C450E458B4A14ADEE0ECFD3D0C39D5289C47A803EFF350B86F5CC3 ====

cue

REM DATE 2015REM DISCID 320CB304REM COMMENT "ExactAudioCopy v1.0b6"PERFORMER "Mauthausen Orchestra"TITLE "Bloodyminded"FILE "301 - Untitled.wav" WAVE  TRACK 01 AUDIO    TITLE "Untitled"    PERFORMER "Mauthausen Orchestra"    INDEX 01 00:00:00  TRACK 02 AUDIO    TITLE "Untitled"    PERFORMER "Mauthausen Orchestra"    INDEX 00 24:30:50FILE "302 - Untitled.wav" WAVE    INDEX 01 00:00:00  TRACK 03 AUDIO    TITLE "Untitled"    PERFORMER "Mauthausen Orchestra"    INDEX 00 16:09:00FILE "303 - Untitled.wav" WAVE    INDEX 01 00:00:00  TRACK 04 AUDIO    TITLE "Untitled"    PERFORMER "Mauthausen Orchestra"    INDEX 00 08:14:65FILE "304 - Untitled.wav" WAVE    INDEX 01 00:00:00

CD 4 - 2nd Movement 1983

01 Untitled 7:30
02 Untitled 3:58
03 Untitled 8:59
04 Untitled 4:10
05 Untitled 5:15
06 Untitled 4:29
07 Untitled 4:37
08 Untitled 4:20
09 Untitled 5:06
10 Untitled 2:20
11 Untitled 2:18
12 Untitled 3:02
Продолжительность: 56:03

cue

Exact Audio Copy V1.0 beta 6 from 9. April 2015EAC extraction logfile from 5. February 2019, 10:33Mauthausen Orchestra / 2nd MovementUsed drive  : ATAPI   iHAS124   B   Adapter: 1  ID: 0Read mode               : SecureUtilize accurate stream : YesDefeat audio cache      : YesMake use of C2 pointers : NoRead offset correction                      : 6Overread into Lead-In and Lead-Out          : NoFill up missing offset samples with silence : YesDelete leading and trailing silent blocks   : NoNull samples used in CRC calculations       : YesUsed interface                              : Native Win32 interface for Win NT & 2000Gap handling                                : Appended to previous trackUsed output format              : User Defined EncoderSelected bitrate                : 1024 kBit/sQuality                         : HighAdd ID3 tag                     : NoCommand line compressor         : C:\Program Files (x86)\Exact Audio Copy\FLAC\FLAC.EXEAdditional command line options : -8 -e -p -V -T "ARTIST=%artist%" -T "TITLE=%title%" -T "ALBUM=%albumtitle%" -T "DATE=%year%" -T "TRACKNUMBER=%tracknr%" -T "GENRE=%genre%" -T "PERFORMER=%albuminterpret%" -T "COMPOSER=%composer%" %haslyrics%--tag-from-file=LYRICS="%lyricsfile%"%haslyrics% -T "ALBUMARTIST=%albumartist%" -T "DISCNUMBER=%cdnumber%" -T "TOTALDISCS=%totalcds%" -T "TOTALTRACKS=%numtracks%" -T "COMMENT=%comment%" %source% -o %dest%TOC of the extracted CD     Track |   Start  |  Length  | Start sector | End sector    ---------------------------------------------------------        1  |  0:00.00 |  7:30.37 |         0    |    33786        2  |  7:30.37 |  3:57.67 |     33787    |    51628        3  | 11:28.29 |  8:59.28 |     51629    |    92081        4  | 20:27.57 |  4:09.44 |     92082    |   110800        5  | 24:37.26 |  5:15.02 |    110801    |   134427        6  | 29:52.28 |  4:28.51 |    134428    |   154578        7  | 34:21.04 |  4:37.12 |    154579    |   175365        8  | 38:58.16 |  4:19.65 |    175366    |   194855        9  | 43:18.06 |  5:05.63 |    194856    |   217793       10  | 48:23.69 |  2:19.70 |    217794    |   228288       11  | 50:43.64 |  2:17.65 |    228289    |   238628       12  | 53:01.54 |  3:01.62 |    238629    |   252265Track  1     Filename G:\musik\_rips\Mauthausen Orchestra - 2nd Movement\01 - Untitled.wav     Pre-gap length  0:00:02.00     Peak level 27.4 %     Extraction speed 3.4 X     Track quality 99.9 %     Test CRC 43D32C22     Copy CRC 43D32C22     Track not present in AccurateRip database     Copy OKTrack  2     Filename G:\musik\_rips\Mauthausen Orchestra - 2nd Movement\02 - Untitled.wav     Pre-gap length  0:00:02.00     Peak level 19.3 %     Extraction speed 4.0 X     Track quality 100.0 %     Test CRC E418FBBE     Copy CRC E418FBBE     Track not present in AccurateRip database     Copy OKTrack  3     Filename G:\musik\_rips\Mauthausen Orchestra - 2nd Movement\03 - Untitled.wav     Pre-gap length  0:00:02.00     Peak level 25.5 %     Extraction speed 4.9 X     Track quality 100.0 %     Test CRC 5DDC7C43     Copy CRC 5DDC7C43     Track not present in AccurateRip database     Copy OKTrack  4     Filename G:\musik\_rips\Mauthausen Orchestra - 2nd Movement\04 - Untitled.wav     Pre-gap length  0:00:02.00     Peak level 23.9 %     Extraction speed 5.0 X     Track quality 100.0 %     Test CRC AA570050     Copy CRC AA570050     Track not present in AccurateRip database     Copy OKTrack  5     Filename G:\musik\_rips\Mauthausen Orchestra - 2nd Movement\05 - Untitled.wav     Pre-gap length  0:00:02.00     Peak level 23.3 %     Extraction speed 4.5 X     Track quality 99.9 %     Test CRC 8070BE8C     Copy CRC 8070BE8C     Track not present in AccurateRip database     Copy OKTrack  6     Filename G:\musik\_rips\Mauthausen Orchestra - 2nd Movement\06 - Untitled.wav     Pre-gap length  0:00:02.00     Peak level 31.6 %     Extraction speed 5.6 X     Track quality 100.0 %     Test CRC 2FCAA821     Copy CRC 2FCAA821     Track not present in AccurateRip database     Copy OKTrack  7     Filename G:\musik\_rips\Mauthausen Orchestra - 2nd Movement\07 - Untitled.wav     Pre-gap length  0:00:02.00     Peak level 22.3 %     Extraction speed 5.8 X     Track quality 100.0 %     Test CRC CB726DD5     Copy CRC CB726DD5     Track not present in AccurateRip database     Copy OKTrack  8     Filename G:\musik\_rips\Mauthausen Orchestra - 2nd Movement\08 - Untitled.wav     Pre-gap length  0:00:02.00     Peak level 21.5 %     Extraction speed 6.0 X     Track quality 100.0 %     Test CRC 805C1EED     Copy CRC 805C1EED     Track not present in AccurateRip database     Copy OKTrack  9     Filename G:\musik\_rips\Mauthausen Orchestra - 2nd Movement\09 - Untitled.wav     Pre-gap length  0:00:02.00     Peak level 18.9 %     Extraction speed 6.3 X     Track quality 100.0 %     Test CRC 49F6DC2C     Copy CRC 49F6DC2C     Track not present in AccurateRip database     Copy OKTrack 10     Filename G:\musik\_rips\Mauthausen Orchestra - 2nd Movement\10 - Untitled.wav     Pre-gap length  0:00:02.00     Peak level 25.4 %     Extraction speed 5.8 X     Track quality 100.0 %     Test CRC 33B1A4D9     Copy CRC 33B1A4D9     Track not present in AccurateRip database     Copy OKTrack 11     Filename G:\musik\_rips\Mauthausen Orchestra - 2nd Movement\11 - Untitled.wav     Pre-gap length  0:00:02.00     Peak level 21.2 %     Extraction speed 5.9 X     Track quality 100.0 %     Test CRC 791C456D     Copy CRC 791C456D     Track not present in AccurateRip database     Copy OKTrack 12     Filename G:\musik\_rips\Mauthausen Orchestra - 2nd Movement\12 - Untitled.wav     Pre-gap length  0:00:02.00     Peak level 17.7 %     Extraction speed 6.3 X     Track quality 100.0 %     Test CRC A8A5D7DA     Copy CRC A8A5D7DA     Track not present in AccurateRip database     Copy OKNone of the tracks are present in the AccurateRip databaseNo errors occurredEnd of status report---- CUETools DB Plugin V2.1.6[CTDB TOCID: A1ARpFwhKWXwyw3P6MK6sSbC8sI-] foundSubmit result: A1ARpFwhKWXwyw3P6MK6sSbC8sI- has been confirmedTrack | CTDB Status  1   | (3/3) Accurately ripped  2   | (3/3) Accurately ripped  3   | (3/3) Accurately ripped  4   | (3/3) Accurately ripped  5   | (3/3) Accurately ripped  6   | (3/3) Accurately ripped  7   | (3/3) Accurately ripped  8   | (3/3) Accurately ripped  9   | (3/3) Accurately ripped 10   | (3/3) Accurately ripped 11   | (3/3) Accurately ripped 12   | (3/3) Accurately ripped==== Log checksum 17A3442C5322A3ECDEE1117A04E353E73A29CCAFBD18EA5BBF3B72D3878AC81C ====

cue

REM DATE 2015REM DISCID 9B0D230CREM COMMENT "ExactAudioCopy v1.0b6"PERFORMER "Mauthausen Orchestra"TITLE "2nd Movement"FILE "401 - Untitled.wav" WAVE  TRACK 01 AUDIO    TITLE "Untitled"    PERFORMER "Mauthausen Orchestra"    INDEX 01 00:00:00  TRACK 02 AUDIO    TITLE "Untitled"    PERFORMER "Mauthausen Orchestra"    INDEX 00 07:28:37FILE "402 - Untitled.wav" WAVE    INDEX 01 00:00:00  TRACK 03 AUDIO    TITLE "Untitled"    PERFORMER "Mauthausen Orchestra"    INDEX 00 03:55:67FILE "403 - Untitled.wav" WAVE    INDEX 01 00:00:00  TRACK 04 AUDIO    TITLE "Untitled"    PERFORMER "Mauthausen Orchestra"    INDEX 00 08:57:28FILE "404 - Untitled.wav" WAVE    INDEX 01 00:00:00  TRACK 05 AUDIO    TITLE "Untitled"    PERFORMER "Mauthausen Orchestra"    INDEX 00 04:07:44FILE "405 - Untitled.wav" WAVE    INDEX 01 00:00:00  TRACK 06 AUDIO    TITLE "Untitled"    PERFORMER "Mauthausen Orchestra"    INDEX 00 05:13:02FILE "406 - Untitled.wav" WAVE    INDEX 01 00:00:00  TRACK 07 AUDIO    TITLE "Untitled"    PERFORMER "Mauthausen Orchestra"    INDEX 00 04:26:51FILE "407 - Untitled.wav" WAVE    INDEX 01 00:00:00  TRACK 08 AUDIO    TITLE "Untitled"    PERFORMER "Mauthausen Orchestra"    INDEX 00 04:35:12FILE "408 - Untitled.wav" WAVE    INDEX 01 00:00:00  TRACK 09 AUDIO    TITLE "Untitled"    PERFORMER "Mauthausen Orchestra"    INDEX 00 04:17:65FILE "409 - Untitled.wav" WAVE    INDEX 01 00:00:00  TRACK 10 AUDIO    TITLE "Untitled"    PERFORMER "Mauthausen Orchestra"    INDEX 00 05:03:63FILE "410 - Untitled.wav" WAVE    INDEX 01 00:00:00  TRACK 11 AUDIO    TITLE "Untitled"    PERFORMER "Mauthausen Orchestra"    INDEX 00 02:17:70FILE "411 - Untitled.wav" WAVE    INDEX 01 00:00:00  TRACK 12 AUDIO    TITLE "Untitled"    PERFORMER "Mauthausen Orchestra"    INDEX 00 02:15:65FILE "412 - Untitled.wav" WAVE    INDEX 01 00:00:00

Об альбоме (сборнике)

One of the key figures of the Italian industrial Power-Electronics "Pierpaolo Zoppo" was starting to release the tapes of his own project "Mauthausen Orchestra" on “Aquilifer Sodality” in 1982.
Pierpaolo Zoppo does not leave much up to imagination with the titles for these early Mauthausen Orchestra albums:
Sex - Death - Blood ...
His topics was sexual violence, perversion, torture and murder ...
Mauthausen Orchestra’s atmosphere, one of true debauchery and calculated sickness, coalescing with the sobering awe of his industrial racket blanketed by the 80’s true lo-fidelity, raw recording procedures has yet to truly be matched.
Pierpaolo Zoppo remains one of the pioneering exploits of the incredibly macabre Italian industrial scene that began with Maurizio Bianchi and continued through Mauthausen Orchestra, The Sodality until Atrax Morgue.
It is hard to ignore how the extremity of the poetics from the Italian scene literally bleeds beyond art and into life for many of those artists.Reissue of challenging early '80s Italian noise decimations from the notorious Mauthausen Orchestra for the first time in cd edition and completely remastered from original tape which includes MO's long-deleted four titles Anal Perversions, Host Sodomy, Bloodyminded and 2nd Movement.
All CD's are housed in individual mini-LP gatefold sleeves with new art and packaged in a hard black box with white lettering, limited to 199 copies. "Anal Perversions" is a fierce nihilism that overflows into the undefined territory between sex and maniac desire, marking our brains and our skin. A single act of sensory rape trying to deconstruct any rational particle that approaching the sound composition. ”Host Sodomy” represents an unprecedented noise assault, without sparing any form of perversion, relinquishing any moral obligation in the pursuit of the late charge. ‘’Bloodyminded’’ offers a side of oppressive ferric noise devolving into anguished vocal terror and another slightly more nuanced side, adhering to a similar schematic. If nothing else is doing it for you, try this at your own risk. ‘’2nd Movement’’ carry us, once again, as real rituals of a civilization without gods, in a pure world of suffering. Infinite modulations towards a sky that has now disappeared and locked in concrete.

Чтобы скачать этот контент, Вам необходимо:
1. Скачать и установить торрент-клиент [клик для Windows], (для мобильного найдите на Play Маркет).
2. Кликнуть по [Скачать]


Внимание.
Если проверка ВЫ НЕ РОБОТ - не работает, значит Вы используете устаревший браузер.
Установите актуальный браузер и повторно кликните по [Скачать]

Запрещён Яндекс браузер. Загрузка файлов им является ошибочной.
Безопасность: торрент-клиент разрешён АВ Касперского.

[mail.asmlocator.ru].t663183.torrent 
Торрент: Зарегистрирован [ 2019-09-11 00:30 ] · D47763D0BB69ACFD5598544751C2DA4F5D79A66A

Скачать .torrent

Скачать

37 KB

Статус: проверено
Скачан: 0 раз
Размер: 880 MB
terms.php
[Профиль] [ЛС]
Показать сообщения:    
Ответить на тему

Текущее время: 11-Июл 04:19

Часовой пояс: UTC ± 0



Вы не можете начинать темы
Вы не можете отвечать на сообщения
Вы не можете редактировать свои сообщения
Вы не можете удалять свои сообщения
Вы не можете голосовать в опросах
Вы не можете прикреплять файлы к сообщениям
Вы можете скачивать файлы
Верим фактам, а не вранью Путина! Факт, что Правительство ведёт Россию к истреблению.
Так как численность населения падает, даже не смотря на приток эмигрантов!
Русская нация вымирает и вырождается, смешиваясь с эмигрантами!
Факт, что военных и граждан предприятий заставляют голосовать за партию Единая Россия и Путина
ПОД СТРАХОМ УВОЛЬНЕНИЯ!
Нам не нужно Правительство, блокирующее личную жизнь, интернет, нарушающее сохранность данных.
Все эти действия финансируются за счёт народа!