Тошка и его друзья. Тошка спешит на помощь (Александр Ленкин) [2018, Беларусь, мультфильм, короткометражный, HDTV 1080i]

Ответить на тему
Статистика раздачи
Размер:  436 MB   |    Зарегистрирован:  1 месяц 1 день   |    Скачан:  0 раз

Полного источника не было: Никогда

 
   
 
 
Автор Сообщение

star21 ®

Пол: Женский

Стаж: 3 года 10 месяцев

Сообщений: 551989

Откуда: Екатеринбург

Создавать темы 17-Авг-2019 00:20

[Цитировать]

Тошка и его друзья. Тошка спешит на помощь Страна: Беларусь
Студия: Беларусьфильм
Жанр: мультфильм, короткометражный
Продолжительность: 00:12:59
Год выпуска: 2018Перевод: не требуется
Русские субтитры: нетРежиссёр: Александр ЛенкинОписание: Всё началось в одно прекрасное утро, неподалёку от озера носящего гордое название Нарочь. Здесь появился на свет необычный герой, названный в честь деда – картофелинка Тошка...Дополнительная информация: запись с телеканала "Cinema HD".Семпл: http://sendfile.su/1509988Качество: HDTV 1080i
Формат: TSВидео: AVC (H264), 1920x1080 (16:9), 25 fps, 4194 kbps
Аудио: MP2, 256 kbps, 2 channels, 48 kHz

MediaInfo

GeneralID                                       : 1 (0x1)Complete name                            : D:\Work\Video\Мультфильмы\Тошка и его друзья. Тошка спешит на помощь.tsFormat                                   : MPEG-TSFile size                                : 436 MiBDuration                                 : 12 min 59 sOverall bit rate mode                    : VariableOverall bit rate                         : 4 684 kb/sVideoID                                       : 1001 (0x3E9)Menu ID                                  : 1 (0x1)Format                                   : AVCFormat/Info                              : Advanced Video CodecFormat profile                           : High@L4Format settings                          : CABAC / 4 Ref FramesFormat settings, CABAC                   : YesFormat settings, RefFrames               : 4 framesFormat settings, GOP                     : M=3, N=30Codec ID                                 : 27Duration                                 : 12 min 59 sBit rate                                 : 4 194 kb/sWidth                                    : 1 920 pixelsHeight                                   : 1 080 pixelsDisplay aspect ratio                     : 16:9Frame rate                               : 25.000 FPSColor space                              : YUVChroma subsampling                       : 4:2:0Bit depth                                : 8 bitsScan type                                : InterlacedScan type, store method                  : Separated fieldsScan order                               : Top Field FirstBits/(Pixel*Frame)                       : 0.081Stream size                              : 390 MiB (90%)Color range                              : LimitedColor primaries                          : BT.709Transfer characteristics                 : BT.709Matrix coefficients                      : BT.709AudioID                                       : 1002 (0x3EA)Menu ID                                  : 1 (0x1)Format                                   : MPEG AudioFormat version                           : Version 1Format profile                           : Layer 2Codec ID                                 : 3Duration                                 : 12 min 59 sBit rate mode                            : ConstantBit rate                                 : 256 kb/sChannel(s)                               : 2 channelsSampling rate                            : 48.0 kHzFrame rate                               : 41.667 FPS (1152 SPF)Compression mode                         : LossyStream size                              : 23.8 MiB (5%)Language                                 : det

Скриншоты


Чтобы скачать этот контент, Вам необходимо:
1. Скачать и установить торрент-клиент [клик для Windows], (для мобильного найдите на Play Маркет).
2. Кликнуть по [Скачать]


Внимание.
Если проверка ВЫ НЕ РОБОТ - не работает, значит Вы используете устаревший браузер.
Установите актуальный браузер и повторно кликните по [Скачать]
Безопасность: торрент-клиент разрешён АВ Касперского.

[asmlocator.ru].t658093.torrent 
Торрент: Зарегистрирован [ 2019-08-17 00:20 ] · 08BE06942BE9A3668E8DB8526CF9C8CDEAD2AD02

Скачать .torrent

Скачать

18 KB

Статус: проверено
Скачан: 0 раз
Размер: 436 MB
terms.php
[Профиль] [ЛС]
Показать сообщения:    
Ответить на тему

Текущее время: 18-Сен 13:22

Часовой пояс: UTC ± 0



Вы не можете начинать темы
Вы не можете отвечать на сообщения
Вы не можете редактировать свои сообщения
Вы не можете удалять свои сообщения
Вы не можете голосовать в опросах
Вы не можете прикреплять файлы к сообщениям
Вы можете скачивать файлы
Верим фактам, а не вранью Путина! Факт, что Правительство ведёт Россию к истреблению.
Так как численность населения падает, даже не смотря на приток эмигрантов!
Русская нация вымирает и вырождается, смешиваясь с эмигрантами!
Факт, что военных и граждан предприятий заставляют голосовать за партию Единая Россия и Путина
ПОД СТРАХОМ УВОЛЬНЕНИЯ!
Нам не нужно Правительство, блокирующее личную жизнь, интернет, нарушающее сохранность данных.
Все эти действия финансируются за счёт народа!