Кровавый урожай / Кровавая жатва / Blood Harvest (Билл Ребане / Bill Rebane) [1987, США, ужасы, BDRip] AVO (Михаил Иванов)

Ответить на тему
Статистика раздачи
Размер:  744 MB   |    Зарегистрирован:  1 месяц 28 дней   |    Скачан:  0 раз

Полного источника не было: Никогда

 
   
 
 
Автор Сообщение

star21 ®

Пол: Женский

Стаж: 3 года 11 месяцев

Сообщений: 551988

Откуда: Екатеринбург

Создавать темы 16-Авг-2019 17:55

[Цитировать]

Кровавый урожай / Кровавая жатва / Blood Harvest Страна: США
Жанр: ужасы
Год выпуска: 1987
Продолжительность: 01:27:56Перевод: Авторский (одноголосый закадровый) Михаил Иванов
Субтитры: нет
Оригинальная аудиодорожка: нетРежиссер: Билл Ребане / Bill RebaneВ ролях: Тайни Тим, Итония Салчек, Дин Уэст, Лори Миннетти, Питер Краузе, Фрэнк Бенсон, Альберт Джаггард, Уильям Декстер, Арлин Декстер, Дженетт БелантОписание: Джилл Робинсон после долгого отсутствия возвращается в родной городок, который встречает её крайне негостеприимно. А всё из-за того, что её отец-банкир за долги отобрал у многих фермеров участки земли. Единственным, кто искренне рад видеть Джилл, становится местный дурачок Мерво, обожающий бродить по окрестностям в клоунском костюме. Вскоре его одержимость новой подругой начинает переходить все границы.Сэмпл: http://multi-up.com/1238342Качество видео: BDRip
Формат видео: AVIВидео: XviD 67, 656x352 (1,85:1), 23.976 fps, 1045 kbps, 0.189 bit/pixel
Аудио: MP3, 48 kHz, 2 ch, 128 kbps

MediaInfo

ОбщееПолное имя                               : Blood.Harvest.1987.BDRip.Xvid.aviФормат                                   : AVIФормат/Информация                        : Audio Video InterleaveРазмер файла                             : 744 МбайтПродолжительность                        : 1 ч. 27 м.Общий поток                              : 1183 Кбит/секПрограмма кодирования                    : VirtualDubMod 1.5.10.3 | www.virtualdub-fr.org || (build 2550/release)Библиотека кодирования                   : VirtualDubMod build 2550/releaseВидеоИдентификатор                            : 0Формат                                   : MPEG-4 VisualПрофиль формата                          : Advanced Simple@L5Параметр BVOP формата                    : 1Параметр QPel формата                    : НетПараметр GMC формата                     : Без точки переходаПараметр матрицы формата                 : ВыборочнаяИдентификатор кодека                     : XVIDИдентификатор кодека/Подсказка           : XviDПродолжительность                        : 1 ч. 27 м.Битрейт                                  : 1045 Кбит/секШирина                                   : 656 пикселейВысота                                   : 352 пикселяСоотношение сторон                       : 1,85:1Частота кадров                           : 23,976 кадра/секЦветовое пространство                    : YUVСубдискретизация насыщенности            : 4:2:0Битовая глубина                          : 8 битТип развёртки                            : ПрогрессивнаяМетод сжатия                             : С потерямиБит/(Пиксели*Кадры)                      : 0.189Размер потока                            : 657 Мбайт (88%)Библиотека кодирования                   : XviD 67АудиоИдентификатор                            : 1Формат                                   : MPEG AudioВерсия формата                           : Version 1Профиль формата                          : Layer 3Идентификатор кодека                     : 55Идентификатор кодека/Подсказка           : MP3Продолжительность                        : 1 ч. 27 м.Вид битрейта                             : ПостоянныйБитрейт                                  : 128 Кбит/секКаналы                                   : 2 каналаЧастота                                  : 48,0 КГцМетод сжатия                             : С потерямиРазмер потока                            : 80,5 Мбайт (11%)Выравнивание                             : Соединение по промежуткамПродолжительность промежутка             : 42  мс. (1,00 видеокадр)Время предзагрузки промежутка            : 504  мс.Библиотека кодирования                   : LAME3.99rНастройки программы                      : -m s -V 4 -q 2 -lowpass 17 -b 128

Скриншоты

Чтобы скачать этот контент, Вам необходимо:
1. Скачать и установить торрент-клиент [клик для Windows], (для мобильного найдите на Play Маркет).
2. Кликнуть по [Скачать]


Внимание.
Если проверка ВЫ НЕ РОБОТ - не работает, значит Вы используете устаревший браузер.
Установите актуальный браузер и повторно кликните по [Скачать]
Безопасность: торрент-клиент разрешён АВ Касперского.

[asmlocator.ru].t658005.torrent 
Торрент: Зарегистрирован [ 2019-08-16 17:55 ] · 352ED1F5D45B759CCE4E4053D590CF5D2B243945

Скачать .torrent

Скачать

15 KB

Статус: проверено
Скачан: 0 раз
Размер: 744 MB
terms.php
[Профиль] [ЛС]
Показать сообщения:    
Ответить на тему

Текущее время: 14-Окт 08:25

Часовой пояс: UTC ± 0



Вы не можете начинать темы
Вы не можете отвечать на сообщения
Вы не можете редактировать свои сообщения
Вы не можете удалять свои сообщения
Вы не можете голосовать в опросах
Вы не можете прикреплять файлы к сообщениям
Вы можете скачивать файлы
Верим фактам, а не вранью Путина! Факт, что Правительство ведёт Россию к истреблению.
Так как численность населения падает, даже не смотря на приток эмигрантов!
Русская нация вымирает и вырождается, смешиваясь с эмигрантами!
Факт, что военных и граждан предприятий заставляют голосовать за партию Единая Россия и Путина
ПОД СТРАХОМ УВОЛЬНЕНИЯ!
Нам не нужно Правительство, блокирующее личную жизнь, интернет, нарушающее сохранность данных.
Все эти действия финансируются за счёт народа!