Скуби-Ду встречает братьев Бу / Scooby-Doo Meets the Boo Brothers (Пол Соммер / Paul Sommer, Карл Урбано / Carl Urbano) [1987, США, Приключение , Комедия, DVD5 (Custom)] 2xDUB + MVO + Original (Eng) + Sub (Eng,Fra,Spa,Port)

Ответить на тему
Статистика раздачи
Размер:  4,19 GB   |    Зарегистрирован:  1 месяц 23 дня   |    Скачан:  0 раз

Полного источника не было: Никогда

 
   
 
 
Автор Сообщение

star21 ®

Пол: Женский

Стаж: 3 года 10 месяцев

Сообщений: 551989

Откуда: Екатеринбург

Создавать темы 28-Июл-2019 22:20

[Цитировать]

Скуби-Ду встречает братьев Бу / Scooby-Doo Meets the Boo Brothers Страна: США
Жанр: Приключение , Комедия
Продолжительность: 01:32:44
Год выпуска: 1987
Перевод 1: Профессиональный (дублированный) «Пифагор»
Перевод 2: Профессиональный (дублированный) «Мост-Видео»
Перевод 3: Профессиональный (многоголосый закадровый) «Интер-Фильм Украина»
Оригинальная аудиодорога: есть (английская)
Русские субтитры: нетРежиссёр: Пол Соммер / Paul Sommer, Карл Урбано / Carl UrbanoРоли озвучивали: Дон Мессик, Кэйси Касэм, Соррел Бук, Уильям Колэуэй, Виктория Кэрролл, Джерри Хаузер, Арте Джонсон, Роб Полсен, Майкл Рай, Ронни ШеллОписание: Сбившись с пути, старые друзья, собаки Скуби Ду, Скрэпи Ду и их хозяин Шэгги заночевали в старинном особняке. Случайно они узнают, что его покойный владелец спрятал здесь клад, и у гостей есть шанс найти его всего за одну ночь! Путь к драгоценностям преграждают смертельные ловушки и целые толпы смешных и ужасных привидений. Неизвестно, чем бы закончилась ночь среди призрачных и реальных опасностей, не приди им на помощь трое чудаковатых, но исполнительных призраков — братьев Бу.: Благодарности:
Shellters-bob - Исходный DVD
Bora86Bora - исходник звука Мост-Видео
Lexa1988-L1 - исходник звука Пифагор, перерисовка меню + постер к раздаче
xfiles - исходный звук Интер-Фильм Украина
*Sergeant_am* - перекодировка и сведение аудио, сборка ДВД Скуби Ду едет в Голливуд (1979) Скуби-Ду и кибер-погоня (2001) Семпл: http://multi-up.com/1236186Качество: DVD5 (Custom)
Формат: DVD-Video
Видео: NTSC, 4:3, 720:480, 29,970 (30000/1001) кадров/сек, 4818 Кбит/сек
Аудио 1: 48 kHz, AC3 Dolby Digital, 2/0 (L,R) , ~192 kbps (Rus) DUB Пифагор
Аудио 2: 48 kHz, AC3 Dolby Digital, 2/0 (L,R) , ~448 kbps (Rus) DUB Мост-Видео
Аудио 3: 48 kHz, AC3 Dolby Digital, 2/0 (L,R) , ~448 kbps (Rus) MVO Интер-Фильм Украина
Аудио 4: 48 kHz, AC3 Dolby Digital, 1/0 (C) , ~192 kbps (Eng)
Субтитры: английские, французские,испанские, португальские

Отчёт DVDInfo

Title: Скуби Ду встречает братьев Бу (DVD5) 2xDub + MVO + Eng + Subs
Size: 4.19 Gb ( 4 397 140,00 KBytes ) - DVD-5
Enabled regions: 1, 2, 3, 4, 5, 6, 7, 8VTS_01 :
Play Length: 01:32:43+00:00:12+00:00:00+00:00:00+00:00:00+00:00:00+00:02:13+00:01:58+00:00:24+00:00:29+00:00:42
Video: NTSC 4:3 (720x480) VBR
Audio:
Russian (Dolby AC3, 2 ch)
Russian (Dolby AC3, 2 ch)
Russian (Dolby AC3, 2 ch)
English (Dolby AC3, 1 ch)
English (Dolby AC3, 2 ch)
Subtitles:
English
Francais
Espanol
Portugues* Menus Information *VIDEO_TS Menu
Video:
NTSC 4:3 (720x480) VBR
Auto Pan&Scan, Auto Letterboxed
Language Unit :
Title MenuVTS_01 Menu
Video:
NTSC 16:9 (720x480) VBR
Auto Pan&Scan
Audio:
Not specified (Dolby AC3, 2 ch)
Russian Language Unit :
Root Menu

Отчёт MediaInfo

Общее
Полное имя : C:\Скуби Ду встречает братьев Бу (DVD5) 2xDub + MVO + Eng + Subs\VTS_01_3.VOB
Формат : MPEG-PS
Размер файла : 1024 Мбайт
Продолжительность : 23 м. 0 с.
Режим общего битрейта : Переменный
Общий поток : 6222 Кбит/секВидео
Идентификатор : 224 (0xE0)
Формат : MPEG Video
Версия формата : Version 2
Профиль формата : Main@Main
Параметр BVOP формата : Да
Параметр матрицы формата : Выборочная
Параметр GOP формата : M=3, N=12
Продолжительность : 23 м. 0 с.
Вид битрейта : Переменный
Битрейт : 4818 Кбит/сек
Максимальный битрейт : 7500 Кбит/сек
Ширина : 720 пикселей
Высота : 480 пикселей
Соотношение сторон : 4:3
Частота кадров : 23,976 (24000/1001) кадра/сек
Цветовое пространство : YUV
Субдискретизация насыщенности : 4:2:0
Битовая глубина : 8 бит
Тип развёртки : Прогрессивная
Порядок развёртки : 2:3 Pulldown
Метод сжатия : С потерями
Бит/(Пиксели*Кадры) : 0.581
Временной код первого кадра : 01:46:43:25
Оригинал временного кода : Group of pictures header
GOP, открыто/закрыто : Открыто
Размер потока : 793 Мбайт (77%)Аудио #1
Идентификатор : 189 (0xBD)-128 (0x80)
Формат : AC-3
Формат/Информация : Audio Coding 3
Расширение режима : CM (complete main)
Параметр Endianness формата : Big
Режим смешивания : DVD-Video
Продолжительность : 23 м. 0 с.
Вид битрейта : Постоянный
Битрейт : 192 Кбит/сек
Каналы : 2 канала
Расположение каналов : Front: L R
Частота : 48,0 КГц
Частота кадров : 31,250 кадров/сек (1536 spf)
Битовая глубина : 16 бит
Метод сжатия : С потерями
Задержка видео : -515 мс.
Размер потока : 31,6 Мбайт (3%)Аудио #2
Идентификатор : 189 (0xBD)-129 (0x81)
Формат : AC-3
Формат/Информация : Audio Coding 3
Расширение режима : CM (complete main)
Параметр Endianness формата : Big
Режим смешивания : DVD-Video
Продолжительность : 23 м. 0 с.
Вид битрейта : Постоянный
Битрейт : 448 Кбит/сек
Каналы : 2 канала
Расположение каналов : Front: L R
Частота : 48,0 КГц
Частота кадров : 31,250 кадров/сек (1536 spf)
Битовая глубина : 16 бит
Метод сжатия : С потерями
Задержка видео : -579 мс.
Размер потока : 73,7 Мбайт (7%)Аудио #3
Идентификатор : 189 (0xBD)-130 (0x82)
Формат : AC-3
Формат/Информация : Audio Coding 3
Расширение режима : CM (complete main)
Параметр Endianness формата : Big
Режим смешивания : DVD-Video
Продолжительность : 23 м. 0 с.
Вид битрейта : Постоянный
Битрейт : 448 Кбит/сек
Каналы : 2 канала
Расположение каналов : Front: L R
Частота : 48,0 КГц
Частота кадров : 31,250 кадров/сек (1536 spf)
Битовая глубина : 16 бит
Метод сжатия : С потерями
Задержка видео : -611 мс.
Размер потока : 73,7 Мбайт (7%)Аудио #4
Идентификатор : 189 (0xBD)-131 (0x83)
Формат : AC-3
Формат/Информация : Audio Coding 3
Расширение режима : CM (complete main)
Параметр Endianness формата : Big
Режим смешивания : DVD-Video
Продолжительность : 23 м. 0 с.
Вид битрейта : Постоянный
Битрейт : 192 Кбит/сек
Каналы : 1 канал
Расположение каналов : Front: C
Частота : 48,0 КГц
Частота кадров : 31,250 кадров/сек (1536 spf)
Битовая глубина : 16 бит
Метод сжатия : С потерями
Задержка видео : -515 мс.
Размер потока : 31,6 Мбайт (3%)Текст #1
Идентификатор : 189 (0xBD)-32 (0x20)
Формат : RLE
Формат/Информация : Run-length encoding
Режим смешивания : DVD-Video
Продолжительность : 22 м. 54 с.
Задержка видео : 2 с. 202 мс.Текст #2
Идентификатор : 189 (0xBD)-33 (0x21)
Формат : RLE
Формат/Информация : Run-length encoding
Режим смешивания : DVD-Video
Продолжительность : 22 м. 54 с.
Задержка видео : 2 с. 202 мс.Текст #3
Идентификатор : 189 (0xBD)-34 (0x22)
Формат : RLE
Формат/Информация : Run-length encoding
Режим смешивания : DVD-Video
Продолжительность : 22 м. 54 с.
Задержка видео : 2 с. 202 мс.Текст #4
Идентификатор : 189 (0xBD)-35 (0x23)
Формат : RLE
Формат/Информация : Run-length encoding
Режим смешивания : DVD-Video
Продолжительность : 22 м. 54 с.
Задержка видео : 2 с. 502 мс.Текст #5
Идентификатор : 224 (0xE0)-CC3
Формат : EIA-608
Режим смешивания, доп. информация : Muxed in Video #1
Продолжительность : 22 м. 54 с.
Вид битрейта : Постоянный
Размер потока : 0,00 байт (0%)Меню
Продолжительность : 22 м. 54 с.

Скриншоты меню

Скриншоты


Чтобы скачать этот контент, Вам необходимо:
1. Скачать и установить торрент-клиент [клик для Windows], (для мобильного найдите на Play Маркет).
2. Кликнуть по [Скачать]


Внимание.
Если проверка ВЫ НЕ РОБОТ - не работает, значит Вы используете устаревший браузер.
Установите актуальный браузер и повторно кликните по [Скачать]
Безопасность: торрент-клиент разрешён АВ Касперского.

[asmlocator.ru].t653969.torrent 
Торрент: Зарегистрирован [ 2019-07-28 22:20 ] · D4644848B3E32FAD16B53019C3BC06C0409474D0

Скачать .torrent

Скачать

11 KB

Статус: проверено
Скачан: 0 раз
Размер: 4,19 GB
terms.php
[Профиль] [ЛС]
Показать сообщения:    
Ответить на тему

Текущее время: 20-Сен 23:22

Часовой пояс: UTC ± 0



Вы не можете начинать темы
Вы не можете отвечать на сообщения
Вы не можете редактировать свои сообщения
Вы не можете удалять свои сообщения
Вы не можете голосовать в опросах
Вы не можете прикреплять файлы к сообщениям
Вы можете скачивать файлы
Верим фактам, а не вранью Путина! Факт, что Правительство ведёт Россию к истреблению.
Так как численность населения падает, даже не смотря на приток эмигрантов!
Русская нация вымирает и вырождается, смешиваясь с эмигрантами!
Факт, что военных и граждан предприятий заставляют голосовать за партию Единая Россия и Путина
ПОД СТРАХОМ УВОЛЬНЕНИЯ!
Нам не нужно Правительство, блокирующее личную жизнь, интернет, нарушающее сохранность данных.
Все эти действия финансируются за счёт народа!