Счастливый ключ / Luck-Key / Lukki (Ли Ге-бёк / Lee Gye-byeok) [2016, Корея Южная, комедия, криминал, BDRip 1080p] Original Kor + Rus Sub (FSG CARDINALS) + Eng Sub

Ответить на тему
Статистика раздачи
Размер:  12.13 GB   |    Зарегистрирован:  5 месяцев 25 дней   |    Скачан:  0 раз

Полного источника не было: Никогда

 
   
 
 
Автор Сообщение

star21 ®

Пол: Женский

Стаж: 4 года 2 месяца

Сообщений: 551946

Откуда: Екатеринбург

Создавать темы 27-Июл-2019 15:10

[Цитировать]

Счастливый ключ / Luck-Key / Lukki Страна: Корея Южная
Жанр: комедия, криминал
Год выпуска: 2016
Продолжительность: 01:52:52Перевод: Субтитры FSG CARDINALS
Субтитры: русские, английские
Оригинальная аудиодорожка: корейскийРежиссер: Ли Ге-бёк / Lee Gye-byeokВ ролях: Ю Хэ-джин, Ли Джун, Чо Юн-хи, Лим Джи-ён, Чо Хан-чхоль, Ким Мин-сан, Сон Бён-сук, Ко Джун, Чон Хе-бинОписание: Неудачливый актёр Чэ-сон думает свести счёты с жизнью и напоследок решает сходить в баню. У киллера Хён-ука дела наоборот идут в гору, и он оказывается в той же самой общественной бане. Но вот незадача — поскальзывается на мыле, ударяется головой и лишается памяти. Чэ-сон решает воспользоваться ситуацией и избавиться от своей никчёмной жизни, подменив ключ от шкафчика пострадавшего на свой. Теперь киллер станет актёром, а актёр — киллером.Доп. информация: IMDb: 6.90 (1313)Сэмпл: https://yadi.sk/i/VDSg1DLRaVVdrgТип релиза: BDRip 1080p
Контейнер: MKVВидео: AVC, 1920х808, 23,976 fps, 13900 Kbps
Аудио: DTS, Korean, 6 ch, 1509 Kbps, 48,0 КГц, 24 бит
Формат субтитров: softsub (SSA/ASS)

MediaInfo

Формат                                   : MatroskaВерсия формата                           : Version 4Размер файла                             : 12,1 ГбайтПродолжительность                        : 1 ч. 52 м.Общий поток                              : 15,4 Мбит/секДата кодирования                         : UTC 2019-06-30 17:06:08Программа кодирования                    : mkvmerge v25.0.0 ('Prog Noir') 64-bitБиблиотека кодирования                   : libebml v1.3.6 + libmatroska v1.4.9ВидеоИдентификатор                            : 1Формат                                   : AVCФормат/Информация                        : Advanced Video CodecПрофиль формата                          : High@L4.1Настройки формата                        : CABAC / 5 Ref FramesПараметр CABAC формата                   : ДаПараметр RefFrames формата               : 5 кадровИдентификатор кодека                     : V_MPEG4/ISO/AVCПродолжительность                        : 1 ч. 52 м.Битрейт                                  : 13,9 Мбит/секШирина                                   : 1920 пикселейВысота                                   : 808 пикселейСоотношение сторон                       : 2,40:1Режим частоты кадров                     : ПостоянныйЧастота кадров                           : 23,976 (24000/1001) кадра/секЦветовое пространство                    : YUVСубдискретизация насыщенности            : 4:2:0Битовая глубина                          : 8 битТип развёртки                            : ПрогрессивнаяБит/(Пиксели*Кадры)                      : 0.373Размер потока                            : 10,9 Гбайт (90%)Заголовок                                : Luck-Key 2016 1080p BluRay DTS x264-DONБиблиотека кодирования                   : x264 core 150 r2833+58 090e24f t_mod_Custom [8-bit@all X86_64]Настройки программы                      : cabac=1 / ref=5 / deblock=1:-3:-3 / analyse=0x3:0x133 / me=umh / subme=11 / psy=1 / fade_compensate=0.00 / psy_rd=1.00:0.00 / mixed_ref=1 / me_range=32 / chroma_me=1 / trellis=2 / 8x8dct=1 / cqm=0 / deadzone=21,11 / fast_pskip=0 / chroma_qp_offset=-2 / threads=12 / lookahead_threads=2 / sliced_threads=0 / nr=0 / decimate=0 / interlaced=0 / bluray_compat=0 / constrained_intra=0 / fgo=0 / bframes=8 / b_pyramid=2 / b_adapt=2 / b_bias=0 / direct=3 / weightb=1 / open_gop=0 / weightp=2 / keyint=250 / keyint_min=23 / scenecut=40 / intra_refresh=0 / rc_lookahead=60 / rc=crf / mbtree=0 / crf=17.1000 / qcomp=0.65 / qpmin=0:0:0 / qpmax=69:69:69 / qpstep=4 / vbv_maxrate=62500 / vbv_bufsize=78125 / crf_max=0.0 / nal_hrd=none / filler=0 / ip_ratio=1.30 / pb_ratio=1.20 / aq=3:0.80 / aq-sensitivity=10.00 / aq-factor=1.00:1.00:1.00 / aq2=0 / aq3=0 / zones=100,540,crf=14/810,2232,crf=14/2665,4200,crf=16.5/4201,4710,crf=14/14037,14686,crf=14/17394,17456,crf=15/22328,22433,crf=14/74591,74705,crf=16.5/74895,74967,crf=16/74968,75083,crf=15/75084,75429,crf=16/75504,76262,crf=16/105795,106145,crf=14/107366,107570,crf=14/111590,111940,crf=14/112995,113038,crf=14/113413,113616,crf=15/115313,115492,crf=13/125685,125719,crf=14/130962,131022,crf=14/132429,150858,crf=16.7/154235,154264,crf=15/155272,155386,crf=14/158790,162229,crf=19Язык                                     : KoreanDefault                                  : ДаForced                                   : НетЦветовой диапазон                        : LimitedКоэффициенты матрицы                     : BT.709АудиоИдентификатор                            : 2Формат                                   : DTSФормат/Информация                        : Digital Theater SystemsИдентификатор кодека                     : A_DTSПродолжительность                        : 1 ч. 52 м.Вид битрейта                             : ПостоянныйБитрейт                                  : 1509 Кбит/секКаналы                                   : 6 каналовChannel layout                           : C L R Ls Rs LFEЧастота                                  : 48,0 КГцЧастота кадров                           : 93,750 кадра/сек (512 SPF)Битовая глубина                          : 24 битМетод сжатия                             : С потерямиРазмер потока                            : 1,19 Гбайт (10%)Язык                                     : KoreanDefault                                  : ДаForced                                   : НетТекст #1Идентификатор                            : 3Формат                                   : ASSИдентификатор кодека                     : S_TEXT/ASSИдентификатор кодека/Информация          : Advanced Sub Station AlphaПродолжительность                        : 1 ч. 48 м.Битрейт                                  : 116 бит/секElementCount                             : 1599Метод сжатия                             : Без потерьРазмер потока                            : 92,1 Кбайт (0%)Язык                                     : RussianDefault                                  : ДаForced                                   : НетТекст #2Идентификатор                            : 4Формат                                   : UTF-8Идентификатор кодека                     : S_TEXT/UTF8Идентификатор кодека/Информация          : UTF-8 Plain TextПродолжительность                        : 1 ч. 48 м.Битрейт                                  : 45 бит/секElementCount                             : 1333Размер потока                            : 36,0 Кбайт (0%)Язык                                     : EnglishDefault                                  : НетForced                                   : НетМеню00:00:00.000                             : en:00:00:00.00000:07:17.312                             : en:00:07:17.31200:14:32.371                             : en:00:14:32.37100:22:52.788                             : en:00:22:52.78800:29:21.635                             : en:00:29:21.63500:38:12.957                             : en:00:38:12.95700:47:38.856                             : en:00:47:38.85600:59:09.254                             : en:00:59:09.25401:11:03.926                             : en:01:11:03.92601:20:27.781                             : en:01:20:27.78101:30:46.775                             : en:01:30:46.77501:40:31.943                             : en:01:40:31.94301:48:53.944                             : en:01:48:53.944

Скриншоты

Чтобы скачать этот контент, Вам необходимо:
1. Скачать и установить торрент-клиент [клик для Windows], (для мобильного найдите на Play Маркет).
2. Кликнуть по [Скачать]


Внимание.
Если проверка ВЫ НЕ РОБОТ - не работает, значит Вы используете устаревший браузер.
Установите актуальный браузер и повторно кликните по [Скачать]
Безопасность: торрент-клиент разрешён АВ Касперского.

[mail.asmlocator.ru].t653730.torrent 
Торрент: Зарегистрирован [ 2019-07-27 15:10 ] · B218AE747F66D4428A36FF171B35B3F77E9D33FA

Скачать .torrent

Скачать

31 KB

Статус: проверено
Скачан: 0 раз
Размер: 12.13 GB
terms.php
[Профиль] [ЛС]
Показать сообщения:    
Ответить на тему

Текущее время: 21-Янв 23:01

Часовой пояс: UTC ± 0



Вы не можете начинать темы
Вы не можете отвечать на сообщения
Вы не можете редактировать свои сообщения
Вы не можете удалять свои сообщения
Вы не можете голосовать в опросах
Вы не можете прикреплять файлы к сообщениям
Вы можете скачивать файлы
Верим фактам, а не вранью Путина! Факт, что Правительство ведёт Россию к истреблению.
Так как численность населения падает, даже не смотря на приток эмигрантов!
Русская нация вымирает и вырождается, смешиваясь с эмигрантами!
Факт, что военных и граждан предприятий заставляют голосовать за партию Единая Россия и Путина
ПОД СТРАХОМ УВОЛЬНЕНИЯ!
Нам не нужно Правительство, блокирующее личную жизнь, интернет, нарушающее сохранность данных.
Все эти действия финансируются за счёт народа!