Гуманоиды из бездны / Твари из бездны / Чудовища / Humanoids from the Deep / Monster (Барбара Питерс / Barbara Peters) [1980, США, Ужасы, фантастика, HDRip] AVO (Андрей Гаврилов) + Original Eng

Ответить на тему
Статистика раздачи
Размер:  1,43 GB   |    Зарегистрирован:  2 месяца 25 дней   |    Скачан:  0 раз

Полного источника не было: Никогда

 
   
 
 
Автор Сообщение

star21 ®

Пол: Женский

Стаж: 3 года 11 месяцев

Сообщений: 551988

Откуда: Екатеринбург

Создавать темы 19-Июл-2019 23:15

[Цитировать]

Гуманоиды из бездны / Твари из бездны / Чудовища / Humanoids from the Deep / Monster Страна: США
Жанр: Ужасы, фантастика
Год выпуска: 1980
Продолжительность: 01:19:41Перевод: Авторский (одноголосый закадровый) Андрей Гаврилов
Субтитры: нет
Оригинальная аудиодорожка: английскийРежиссер: Барбара Питерс / Barbara PetersВ ролях: Даг МакКлёр
Энн Тёркел
Вик Морроу
Синди Вентрауб
Энтони Пена
Дениз Галик-Фёри
Линн Тил
Миган Кинг
Брек Костин
Хоук ХауэллОписание: Государство в строжайшей тайне финансирует научный эксперимент по созданию биологического оружия. Когда смертоносные амфибии с измененным генетическим кодом случайно вырываются на свободу, правительство делает все, чтобы это скрыть. Распылив в океане отраву, ученые считают чудовищ мертвыми, но это ошибка. Схватка с взбесившейся природой неотвратима.Доп. информация: За оцифрованную звуковую дорожку благодарим mars1574 , а также мне за синхрон дорожки
Видеоряд из CГСэмпл: https://yadi.sk/i/lFx6nTrQI9-naQКачество видео: HDRip (Исходник Humanoids from the Deep [1980/BDRIP/1080p/BD50] )
Формат видео: AVIВидео: XviD , 720x400(1.80:1), 23.976 fps, 2 174 Kbps
Аудио: AC3 , 48 kHz , 192.00 kbps avg , 2/0 (L,R) ch
Аудио 2: AC3 , 48 kHz , 192.00 kbps avg , 2/0 (L,R) ch

MediaInfo

Complete name          Гуманоиды из бездны 1980 (Gavrilov).aviFormat                      : AVIFormat/Info                 : Audio Video InterleaveFile size                   : 1.43 GiBDuration                    : 1h 19mnOverall bit rate            : 2 572 KbpsWriting application         : VirtualDubMod 1.5.10.3 | www.virtualdub-fr.org || (build 2550/release)Writing library             : VirtualDubMod build 2550/releaseVideoID                          : 0Format                      : MPEG-4 VisualFormat profile              : Advanced Simple@L5Format settings, BVOP       : 1Format settings, QPel       : NoFormat settings, GMC        : No warppointsFormat settings, Matrix     : CustomCodec ID                    : XVIDCodec ID/Hint               : XviDDuration                    : 1h 19mnBit rate                    : 2 174 KbpsWidth                       : 720 pixelsHeight                      : 400 pixelsDisplay aspect ratio        : 16:9Frame rate                  : 23.976 (23976/1000) fpsColor space                 : YUVChroma subsampling          : 4:2:0Bit depth                   : 8 bitsScan type                   : ProgressiveCompression mode            : LossyBits/(Pixel*Frame)          : 0.315Stream size                 : 1.21 GiB (85%)Writing library             : XviD 73Audio #1ID                          : 1Format                      : AC-3Format/Info                 : Audio Coding 3Mode extension              : CM (complete main)Format settings, Endianness : BigCodec ID                    : 2000Duration                    : 1h 19mnBit rate mode               : ConstantBit rate                    : 192 KbpsChannel(s)                  : 2 channelsChannel positions           : Front: L RSampling rate               : 48.0 KHzFrame rate                  : 31.250 fps (1536 spf)Compression mode            : LossyDelay relative to video     : 30msStream size                 : 109 MiB (7%)Alignment                   : Split accross interleavesInterleave, duration        : 42 ms (1.00 video frame)Interleave, preload duratio : 500 msAudio #2ID                          : 2Format                      : AC-3Format/Info                 : Audio Coding 3Mode extension              : CM (complete main)Format settings, Endianness : BigCodec ID                    : 2000Duration                    : 1h 19mnBit rate mode               : ConstantBit rate                    : 192 KbpsChannel(s)                  : 2 channelsChannel positions           : Front: L RSampling rate               : 48.0 KHzFrame rate                  : 31.250 fps (1536 spf)Compression mode            : LossyDelay relative to video     : 35msStream size                 : 109 MiB (7%)Alignment                   : Split accross interleavesInterleave, duration        : 42 ms (1.00 video frame)Interleave, preload duratio : 500 ms

Скриншоты

Чтобы скачать этот контент, Вам необходимо:
1. Скачать и установить торрент-клиент [клик для Windows], (для мобильного найдите на Play Маркет).
2. Кликнуть по [Скачать]


Внимание.
Если проверка ВЫ НЕ РОБОТ - не работает, значит Вы используете устаревший браузер.
Установите актуальный браузер и повторно кликните по [Скачать]
Безопасность: торрент-клиент разрешён АВ Касперского.

[asmlocator.ru].t652572.torrent 
Торрент: Зарегистрирован [ 2019-07-19 23:15 ] · 63C597F72CC46BE91E30A62AB3D160B500ED5127

Скачать .torrent

Скачать

15 KB

Статус: проверено
Скачан: 0 раз
Размер: 1,43 GB
terms.php
[Профиль] [ЛС]
Показать сообщения:    
Ответить на тему

Текущее время: 14-Окт 08:45

Часовой пояс: UTC ± 0



Вы не можете начинать темы
Вы не можете отвечать на сообщения
Вы не можете редактировать свои сообщения
Вы не можете удалять свои сообщения
Вы не можете голосовать в опросах
Вы не можете прикреплять файлы к сообщениям
Вы можете скачивать файлы
Верим фактам, а не вранью Путина! Факт, что Правительство ведёт Россию к истреблению.
Так как численность населения падает, даже не смотря на приток эмигрантов!
Русская нация вымирает и вырождается, смешиваясь с эмигрантами!
Факт, что военных и граждан предприятий заставляют голосовать за партию Единая Россия и Путина
ПОД СТРАХОМ УВОЛЬНЕНИЯ!
Нам не нужно Правительство, блокирующее личную жизнь, интернет, нарушающее сохранность данных.
Все эти действия финансируются за счёт народа!