[TR24][OF] Laibach - Also Sprach Zarathustra - 2017 (Experimental, Modern Classical)

Ответить на тему
Статистика раздачи
Размер:  489 MB   |    Зарегистрирован:  2 месяца 7 дней   |    Скачан:  0 раз

Полного источника не было: Никогда

 
   
 
 
Автор Сообщение

star21 ®

Пол: Женский

Стаж: 3 года 10 месяцев

Сообщений: 551989

Откуда: Екатеринбург

Создавать темы 13-Июл-2019 01:50

[Цитировать]

Laibach / Also Sprach Zarathustra Формат записи/Источник записи: [TR24][OF]
Наличие водяных знаков: Нет
Год издания/переиздания диска: 2017
Жанр: Experimental, Modern Classical
Издатель (лейбл): Mute
Продолжительность: 00:53:13
Наличие сканов в содержимом раздачи: Только обложка альбомаТреклист:
1. Vor Sonnen-Untergang 02:08
2. Ein Untergang 04:00
3. Die Unschuld I 02:44
4. Ein Verkündiger 04:38
5. Von Gipfel Zu Gipfel 05:10
6. Das Glück 04:32
7. Das Nachtlied I 03:23
8. Das Nachtlied II 03:39
9. Die Unschuld II 03:45
10. Als Geist 05:46
11. Vor Sonnen-Aufgang 05:59
12. Von Den Drei Verwandlungen 07:29Контейнер: FLAC (*.flac)
Тип рипа: tracksРазрядность: 24/44,1
Формат: PCM
Количество каналов: 2.0

DR7

foobar2000 1.4.5 / Dynamic Range Meter 1.1.1log date: 2019-06-27 17:10:52--------------------------------------------------------------------------------Analyzed: Laibach / Also Sprach Zarathustra--------------------------------------------------------------------------------DR         Peak         RMS     Duration Track--------------------------------------------------------------------------------DR9       -1.01 dB   -13.73 dB      2:08 01-Vor Sonnen-UntergangDR7       -1.20 dB   -13.00 dB      4:00 02-Ein UntergangDR7       -1.13 dB   -12.80 dB      2:44 03-Die Unschuld IDR5       -0.28 dB    -9.56 dB      4:38 04-Ein VerkündigerDR7       -0.71 dB   -11.30 dB      5:10 05-Von Gipfel Zu GipfelDR6       -0.42 dB   -10.85 dB      4:32 06-Das GlückDR8       -0.61 dB   -10.98 dB      3:23 07-Das Nachtlied IDR6       -0.48 dB   -10.03 dB      3:39 08-Die Unschuld IIDR7       -1.34 dB   -11.39 dB      3:45 09-Die Unschuld IIDR8       -0.58 dB   -12.34 dB      5:46 10-Als GeistDR7       -1.05 dB   -11.97 dB      5:59 11-Vor Sonnen-AufgangDR8       -0.87 dB   -10.95 dB      7:29 12-Von Den Drei Verwandlungen--------------------------------------------------------------------------------Number of tracks:  12Official DR value: DR7Samplerate:        44100 HzChannels:          2Bits per sample:   24Bitrate:           1366 kbpsCodec:             FLAC================================================================================
Источник (релизер): Собственная покупка Qobuz

Proof


Чтобы скачать этот контент, Вам необходимо:
1. Скачать и установить торрент-клиент [клик для Windows], (для мобильного найдите на Play Маркет).
2. Кликнуть по [Скачать]


Внимание.
Если проверка ВЫ НЕ РОБОТ - не работает, значит Вы используете устаревший браузер.
Установите актуальный браузер и повторно кликните по [Скачать]
Безопасность: торрент-клиент разрешён АВ Касперского.

[asmlocator.ru].t651275.torrent 
Торрент: Зарегистрирован [ 2019-07-13 01:50 ] · 4DFB5A38243D00962862BDFD55AD7736844C7300

Скачать .torrent

Скачать

20 KB

Статус: проверено
Скачан: 0 раз
Размер: 489 MB
terms.php
[Профиль] [ЛС]
Показать сообщения:    
Ответить на тему

Текущее время: 20-Сен 23:13

Часовой пояс: UTC ± 0



Вы не можете начинать темы
Вы не можете отвечать на сообщения
Вы не можете редактировать свои сообщения
Вы не можете удалять свои сообщения
Вы не можете голосовать в опросах
Вы не можете прикреплять файлы к сообщениям
Вы можете скачивать файлы
Верим фактам, а не вранью Путина! Факт, что Правительство ведёт Россию к истреблению.
Так как численность населения падает, даже не смотря на приток эмигрантов!
Русская нация вымирает и вырождается, смешиваясь с эмигрантами!
Факт, что военных и граждан предприятий заставляют голосовать за партию Единая Россия и Путина
ПОД СТРАХОМ УВОЛЬНЕНИЯ!
Нам не нужно Правительство, блокирующее личную жизнь, интернет, нарушающее сохранность данных.
Все эти действия финансируются за счёт народа!