[TR24][OF] Craig Padilla & Marvin Allen - Toward The Horizon - 2019 (Ambient, Berlin-School)

Ответить на тему
Статистика раздачи
Размер:  1,13 GB   |    Зарегистрирован:  2 месяца 9 дней   |    Скачан:  0 раз

Полного источника не было: Никогда

 
   
 
 
Автор Сообщение

star21 ®

Пол: Женский

Стаж: 3 года 10 месяцев

Сообщений: 551989

Откуда: Екатеринбург

Создавать темы 13-Июл-2019 01:50

[Цитировать]

Craig Padilla & Marvin Allen / Toward The Horizon Формат записи/Источник записи: [TR24][OF]
Наличие водяных знаков: Нет
Год издания/переиздания диска: 2019
Жанр: Ambient, Berlin-School
Издатель(лейбл): Spotted Peccary
Номер по каталогу: SPM-9086-FL24
Страна исполнителя (группы): USA
Продолжительность: 1:04:42
Наличие сканов в содержимом раздачи: Буклет PDFТреклист:
1 Toward The Horizon [17:38]
2 Distant Waves [4:58]
3 Tidal Disruption [13:05]
4 Beneath The Surface [13:23]
5 Hidden [11:00]
6 Liquid Heaven [4:35]Контейнер: FLAC (*.flac)
Тип рипа: tracksРазрядность: 24/96
Формат: WAV (flac.ape.wv)
Количество каналов: 2.0

Dynamic Range Meter

foobar2000 1.1.7 / Dynamic Range Meter 1.1.1log date: 2019-07-06 12:30:17--------------------------------------------------------------------------------Analyzed: Craig Padilla & Marvin Allen / Toward the Horizon (24-Bit Studio Master)--------------------------------------------------------------------------------DR         Peak         RMS     Duration Track--------------------------------------------------------------------------------DR11      -1.00 dB   -14.72 dB     17:39 01-Toward the HorizonDR10      -1.00 dB   -13.19 dB      4:58 02-Distant WavesDR10      -1.00 dB   -13.44 dB     13:06 03-Tidal DisruptionDR10      -1.00 dB   -15.82 dB     13:24 04-Beneath the SurfaceDR11      -1.63 dB   -16.20 dB     11:00 05-HiddenDR10      -1.00 dB   -16.00 dB      4:35 06-Liquid Heaven--------------------------------------------------------------------------------Number of tracks:  6Official DR value: DR10Samplerate:        96000 HzChannels:          2Bits per sample:   24Bitrate:           2327 kbpsCodec:             FLAC================================================================================
Источник (релизер): Spotted Peccary (своя покупка)

Чтобы скачать этот контент, Вам необходимо:
1. Скачать и установить торрент-клиент [клик для Windows], (для мобильного найдите на Play Маркет).
2. Кликнуть по [Скачать]


Внимание.
Если проверка ВЫ НЕ РОБОТ - не работает, значит Вы используете устаревший браузер.
Установите актуальный браузер и повторно кликните по [Скачать]
Безопасность: торрент-клиент разрешён АВ Касперского.

[asmlocator.ru].t651273.torrent 
Торрент: Зарегистрирован [ 2019-07-13 01:50 ] · CA38C2D53BF1B4F05AAC68F3FF62C1FE77A75206

Скачать .torrent

Скачать

12 KB

Статус: проверено
Скачан: 0 раз
Размер: 1,13 GB
terms.php
[Профиль] [ЛС]
Показать сообщения:    
Ответить на тему

Текущее время: 22-Сен 05:47

Часовой пояс: UTC ± 0



Вы не можете начинать темы
Вы не можете отвечать на сообщения
Вы не можете редактировать свои сообщения
Вы не можете удалять свои сообщения
Вы не можете голосовать в опросах
Вы не можете прикреплять файлы к сообщениям
Вы можете скачивать файлы
Верим фактам, а не вранью Путина! Факт, что Правительство ведёт Россию к истреблению.
Так как численность населения падает, даже не смотря на приток эмигрантов!
Русская нация вымирает и вырождается, смешиваясь с эмигрантами!
Факт, что военных и граждан предприятий заставляют голосовать за партию Единая Россия и Путина
ПОД СТРАХОМ УВОЛЬНЕНИЯ!
Нам не нужно Правительство, блокирующее личную жизнь, интернет, нарушающее сохранность данных.
Все эти действия финансируются за счёт народа!