[TR24][OF] Laid Back - Healing Feeling - 2019 (Electronic, Synth Pop)

Ответить на тему
Статистика раздачи
Размер:  466 MB   |    Зарегистрирован:  2 месяца 6 дней   |    Скачан:  1 раз

Полного источника не было: 9 минут

 
   
 
 
Автор Сообщение

star21 ®

Пол: Женский

Стаж: 3 года 10 месяцев

Сообщений: 551989

Откуда: Екатеринбург

Создавать темы 11-Июл-2019 18:10

[Цитировать]

Laid Back / Healing Feeling Формат записи/Источник записи: [TR24][OF]
Наличие водяных знаков: Нет
Год издания/переиздания диска: 2019
Жанр: Electronic, Synth Pop
Издатель (лейбл): Brother Music
Продолжительность: 43:55
Наличие сканов в содержимом раздачи: НетТреклист:
01. Give It Free (3:44)
02. Keep on Loving (3:26)
03. Love is a Flower (3:44)
04. Walk with the Dreamers (4:18)
05. Healing Feeling (3:26)
06. Enjoy the Vibes (4:09)
07. Number One (4:11)
08. Next Life (2:54)
09. Deep Inside Your Mind (4:11)
10. I'm the Shy Guy (4:15)
11. House of the Rising Sun (5:37)Контейнер: FLAC (*.flac)
Тип рипа: tracksРазрядность: 24/44,1
Формат: Flac
Количество каналов: 2.0

Лог проверки качества

foobar2000 1.3.9 / Dynamic Range Meter 1.1.1log date: 2019-05-13 17:10:53--------------------------------------------------------------------------------Analyzed: Laid Back / Healing Feeling--------------------------------------------------------------------------------DR         Peak         RMS     Duration Track--------------------------------------------------------------------------------DR10      -1.00 dB   -12.65 dB      3:44 01-Give It FreeDR11       0.00 dB   -12.60 dB      3:27 02-Keep On LovingDR11       0.00 dB   -12.08 dB      3:45 03-Love Is A FlowerDR10       0.00 dB   -10.73 dB      4:18 04-Walk With The DreamersDR10       0.00 dB   -11.61 dB      3:26 05-Healing FeelingDR8        0.00 dB    -9.58 dB      4:10 06-Enjoy The VibesDR10       0.00 dB   -12.08 dB      4:12 07-Number OneDR10       0.00 dB   -12.43 dB      2:54 08-Next LifeDR10       0.00 dB   -11.94 dB      4:12 09-Deep Inside Your MindDR10       0.00 dB   -12.03 dB      4:16 10-I'm The Shy GuyDR10       0.00 dB   -11.50 dB      5:37 11-House Of The Rising Sun--------------------------------------------------------------------------------Number of tracks:  11Official DR value: DR10Samplerate:        44100 HzChannels:          2Bits per sample:   24Bitrate:           1460 kbpsCodec:             FLAC================================================================================
Источник (релизер):7digital

Чтобы скачать этот контент, Вам необходимо:
1. Скачать и установить торрент-клиент [клик для Windows], (для мобильного найдите на Play Маркет).
2. Кликнуть по [Скачать]


Внимание.
Если проверка ВЫ НЕ РОБОТ - не работает, значит Вы используете устаревший браузер.
Установите актуальный браузер и повторно кликните по [Скачать]
Безопасность: торрент-клиент разрешён АВ Касперского.

[asmlocator.ru].t650819.torrent 
Торрент: Зарегистрирован [ 2019-07-11 18:10 ] · 157C4481B368436DCBCB20BF7F873D844CFB5648

Скачать .torrent

Скачать

38 KB

Статус: проверено
Скачан: 1 раз
Размер: 466 MB
terms.php
[Профиль] [ЛС]
Показать сообщения:    
Ответить на тему

Текущее время: 18-Сен 13:59

Часовой пояс: UTC ± 0



Вы не можете начинать темы
Вы не можете отвечать на сообщения
Вы не можете редактировать свои сообщения
Вы не можете удалять свои сообщения
Вы не можете голосовать в опросах
Вы не можете прикреплять файлы к сообщениям
Вы можете скачивать файлы
Верим фактам, а не вранью Путина! Факт, что Правительство ведёт Россию к истреблению.
Так как численность населения падает, даже не смотря на приток эмигрантов!
Русская нация вымирает и вырождается, смешиваясь с эмигрантами!
Факт, что военных и граждан предприятий заставляют голосовать за партию Единая Россия и Путина
ПОД СТРАХОМ УВОЛЬНЕНИЯ!
Нам не нужно Правительство, блокирующее личную жизнь, интернет, нарушающее сохранность данных.
Все эти действия финансируются за счёт народа!