[TR24][OF] Nigen - Monachopsis - 2016 (electronic, hardstyle, industrial, trap)

Ответить на тему
Статистика раздачи
Размер:  216 MB   |    Зарегистрирован:  2 месяца 9 дней   |    Скачан:  0 раз

Полного источника не было: Никогда

 
   
 
 
Автор Сообщение

star21 ®

Пол: Женский

Стаж: 3 года 10 месяцев

Сообщений: 551989

Откуда: Екатеринбург

Создавать темы 11-Июл-2019 18:10

[Цитировать]

Nigen – Monachopsis Формат записи/Источник записи: [TR24][OF]
Наличие водяных знаков: Нет
Год издания/переиздания диска: 2016
Жанр: electronic, hardstyle, industrial, trap
Продолжительность: 00:17:10
Наличие сканов в содержимом раздачи: НетТреклист:
1. Breathing for You
2. Dust
3. Monachopsis
4. SatelliteКонтейнер: FLAC (*.flac)
Тип рипа: tracksРазрядность: 24/44,1
Формат: PCM
Количество каналов: 2.0

Лог проверки качества

foobar2000 1.3.17 / Замер динамического диапазона (DR) 1.1.1Дата отчёта:  2019-05-19 11:04:13--------------------------------------------------------------------------------Анализ:   Nigen / Monachopsis--------------------------------------------------------------------------------DR         Пики         RMS           Продолжительность трека--------------------------------------------------------------------------------DR5       -0.78 дБ    -8.62 дБ      4:02 01-Breathing for YouDR7       -0.72 дБ    -8.80 дБ      4:01 02-DustDR5       -0.77 дБ    -7.98 дБ      4:55 03-MonachopsisDR5       -0.76 дБ    -7.13 дБ      4:14 04-Satellite--------------------------------------------------------------------------------Количество треков: 4Реальные значения DR: DR5Частота:   44100 ГцКаналов:   2Разрядность:   24Битрейт:   1710 кбит/сКодек:   FLAC================================================================================
Источник (релизер): Собственная покупка: https://blindmiceproductions.bandcamp.com/album/monachopsis

Чтобы скачать этот контент, Вам необходимо:
1. Скачать и установить торрент-клиент [клик для Windows], (для мобильного найдите на Play Маркет).
2. Кликнуть по [Скачать]


Внимание.
Если проверка ВЫ НЕ РОБОТ - не работает, значит Вы используете устаревший браузер.
Установите актуальный браузер и повторно кликните по [Скачать]
Безопасность: торрент-клиент разрешён АВ Касперского.

[asmlocator.ru].t650816.torrent 
Торрент: Зарегистрирован [ 2019-07-11 18:10 ] · 98F5851F690E5D53A2B8C365EFCC535403823116

Скачать .torrent

Скачать

34 KB

Статус: проверено
Скачан: 0 раз
Размер: 216 MB
terms.php
[Профиль] [ЛС]
Показать сообщения:    
Ответить на тему

Текущее время: 20-Сен 23:26

Часовой пояс: UTC ± 0



Вы не можете начинать темы
Вы не можете отвечать на сообщения
Вы не можете редактировать свои сообщения
Вы не можете удалять свои сообщения
Вы не можете голосовать в опросах
Вы не можете прикреплять файлы к сообщениям
Вы можете скачивать файлы
Верим фактам, а не вранью Путина! Факт, что Правительство ведёт Россию к истреблению.
Так как численность населения падает, даже не смотря на приток эмигрантов!
Русская нация вымирает и вырождается, смешиваясь с эмигрантами!
Факт, что военных и граждан предприятий заставляют голосовать за партию Единая Россия и Путина
ПОД СТРАХОМ УВОЛЬНЕНИЯ!
Нам не нужно Правительство, блокирующее личную жизнь, интернет, нарушающее сохранность данных.
Все эти действия финансируются за счёт народа!