[TR24][OF] Arjen Schat - Sequentem - 2014 (Electronic, Berlin School, Sequencing)

Ответить на тему
Статистика раздачи
Размер:  666 MB   |    Зарегистрирован:  3 месяца 18 дней   |    Скачан:  1 раз

Полного источника не было: 7 минут

 
   
 
 
Автор Сообщение

star21 ®

Пол: Женский

Стаж: 3 года 10 месяцев

Сообщений: 551989

Откуда: Екатеринбург

Создавать темы 02-Июн-2019 06:55

[Цитировать]

Arjen Schat / Sequentem Формат записи/Источник записи: [TR24][OF]
Наличие водяных знаков: Нет
Год издания/переиздания диска: 2014
Жанр: Electronic, Berlin School, Sequencing
Издатель (лейбл): Bandcamp
Продолжительность: 01:05:00
Наличие сканов в содержимом раздачи: Только обложка альбома
Источник (релизер): собственный рипТреклист:
1 Aera 11:32
2 Living Room Session 17:31
3 A4 - OS 1.1 8:08
4 Quale (Sequential) 8:15
5 ASEQ2 19:32Контейнер: FLAC (*.flac)
Тип рипа: tracksРазрядность: 24/44,1
Формат: PCM
Количество каналов: 2.0

Лог проверки качества

foobar2000 1.3.2 / Замер динамического диапазона (DR) 1.1.1Дата отчёта: 2019-04-29 18:58:38--------------------------------------------------------------------------------Анализ:   Arjen Schat / Sequentem--------------------------------------------------------------------------------DR         Пики          RMS        Продолжительность трека--------------------------------------------------------------------------------DR9       -1.80 дБ   -12.43 дБ     11:32 01-AeraDR11       0.00 дБ   -13.67 дБ     17:31 02-Living Room SessionDR9       -1.80 дБ   -13.04 дБ      8:09 03-A4 - OS 1.1DR11       0.00 дБ   -14.73 дБ      8:16 04-Quale (Sequential)DR9       -1.00 дБ   -11.73 дБ     19:32 05-ASEQ2--------------------------------------------------------------------------------Количество треков: 5Реальные значения DR: DR10Частота:  44100 ГцКаналов:  2Разрядность:   24Битрейт:  1402 кбит/сКодек:   FLAC================================================================================

Скриншот спектра частот

Об исполнителе (группе)

Arjen Schat has been active in the field of electronic music under numerous monikers since the late 90s. Inspired by Klaus Schulze and Tangerine Dream, Arjen has been tailoring the Berlin-school sound to his own unique sonic identity, alongside his ever expanding amount of ambient and meditative drone musicАрьен Шат активно работает в области электронной музыки под многочисленными названиями с конца 90-х годов. Вдохновленный Клаусом Шульце и Tangerine Dream, Арьен приспосабливает звук берлинской школы к своей уникальной звуковой индивидуальности наряду с постоянно растущим количеством амбиентной и медитативной дроновой музыки. (Гуглотолмач)

Об альбоме (сборнике)

Collection of tracks that have been published on YouTube (with the exception of ASEQ2), now available for download.released August 16, 2014Processed and recorded at Infraklang, January 2013 - August 2014.Music, photography and design by Arjen Schat.
Доп. информация: То, что по-русски называют секвенсорика. Чистая и незамутнённая. Мелодия отсутствует как класс...

Чтобы скачать этот контент, Вам необходимо:
1. Скачать и установить торрент-клиент [клик для Windows], (для мобильного найдите на Play Маркет).
2. Кликнуть по [Скачать]


Внимание.
Если проверка ВЫ НЕ РОБОТ - не работает, значит Вы используете устаревший браузер.
Установите актуальный браузер и повторно кликните по [Скачать]
Безопасность: торрент-клиент разрешён АВ Касперского.

[asmlocator.ru].t641061.torrent 
Торрент: Зарегистрирован [ 2019-06-02 06:55 ] · 74E3230985E1C2D34FEA0D2A97D2A5563B191E18

Скачать .torrent

Скачать

14 KB

Статус: проверено
Скачан: 1 раз
Размер: 666 MB
terms.php
[Профиль] [ЛС]
Показать сообщения:    
Ответить на тему

Текущее время: 20-Сен 22:22

Часовой пояс: UTC ± 0



Вы не можете начинать темы
Вы не можете отвечать на сообщения
Вы не можете редактировать свои сообщения
Вы не можете удалять свои сообщения
Вы не можете голосовать в опросах
Вы не можете прикреплять файлы к сообщениям
Вы можете скачивать файлы
Верим фактам, а не вранью Путина! Факт, что Правительство ведёт Россию к истреблению.
Так как численность населения падает, даже не смотря на приток эмигрантов!
Русская нация вымирает и вырождается, смешиваясь с эмигрантами!
Факт, что военных и граждан предприятий заставляют голосовать за партию Единая Россия и Путина
ПОД СТРАХОМ УВОЛЬНЕНИЯ!
Нам не нужно Правительство, блокирующее личную жизнь, интернет, нарушающее сохранность данных.
Все эти действия финансируются за счёт народа!