Мой отец Ганди / Gandhi, My Father (Фероз Аббас Кхан / Feroze Khan) [2007, Индия, драма, биография, история, DVDRemux] DVO + Original (Hindi)

Ответить на тему
Статистика раздачи
Размер:  6,52 GB   |    Зарегистрирован:  5 месяцев 27 дней   |    Скачан:  0 раз

Полного источника не было: Никогда

 
   
 
 
Автор Сообщение

star21 ®

Пол: Женский

Стаж: 4 года

Сообщений: 551946

Откуда: Екатеринбург

Создавать темы 19-Май-2019 05:25

[Цитировать]

Мой отец Ганди
Gandhi, My Father
Страна: Индия
Жанр: драма, биография, история
Год выпуска: 2007
Продолжительность: 02:20:23
Перевод: профессиональный (двухголосый)
Оригинальная аудиодорожка: хинди, английский
Субтитры: английскиеРежиссёр: Фероз Аббас Кхан / Feroze KhanВ ролях: Акшай Кханна, Бхумика Чавла, Даршан Джаривала, Шефали ШеттиОписание: Ганди называли отцом нации, но его сын Харилал ужасно ревновал, так как не хотел делить своего отца со всем народом. И, несмотря на то, что сам Махатма Ганди по-прежнему любил своего сына, Харилал так и не простил его. Вместо этого он стал полной противоположностью своему отцу. Обманывал людей, выманивал у них деньги, используя для этих целей честное имя Махатма Ганди... [imdb]http://www.imdb.com/title/tt0459293[/imdb] Качество: DVDRemux
Формат: MKV
Видео: 720x480 (16:9) @ 854x480, MPEG-2 Video / 6000 kbps / 29,970 fps /
Аудио 1: AC3, 48 kHz, 2ch, 192.00 kbps: [RUS]
Аудио 2: AC3, 48 kHz, 6ch, 448.00 kbps: [HIN]
Формат субтитров: srt и оригинал
Разбивка на главы: есть

MediaInfo

Общее
Уникальный идентификатор : 283455609841114528232935670759385834756 (0xD53F908F81FD2293A71050241E89A504)
Полное имя : D:\Ремуксы\[AORE] Cult Films Remuxes\Gandhi, My Father 2007\Gandhi, My Father 2007.mkv
Формат : Matroska
Версия формата : Version 4
Размер файла : 6,52 Гбайт
Продолжительность : 2 ч. 20 м.
Общий поток : 6644 Кбит/сек
Дата кодирования : UTC 2019-05-11 08:18:30
Программа кодирования : mkvmerge v33.1.0 ('Primrose') 64-bit
Библиотека кодирования : libebml v1.3.7 + libmatroska v1.5.0Видео
Идентификатор : 1
Формат : MPEG Video
Версия формата : Version 2
Профиль формата : Main@Main
Настройки формата : BVOP
Параметр BVOP формата : Да
Параметр матрицы формата : По умолчанию
Параметр GOP формата : M=3, N=7
Структура изображения : Frame
Идентификатор кодека : V_MPEG2
Идентификатор кодека/Информация : MPEG 1 or 2 Video
Продолжительность : 2 ч. 20 м.
Вид битрейта : Постоянный
Битрейт : 6000 Кбит/сек
Ширина : 720 пикселей
Высота : 480 пикселей
Соотношение сторон : 16:9
Соотношение сторон в оригинале : 2,40:1
Режим частоты кадров : Постоянный
Частота кадров : 29,970 (30000/1001) кадров/сек
Стандарт вещания : NTSC
Цветовое пространство : YUV
Субдискретизация насыщенности : 4:2:0
Битовая глубина : 8 бит
Тип развёртки : Чересстрочная
Порядок развёртки : Верхнее поле первое
Метод сжатия : С потерями
Бит/(Пиксели*Кадры) : 0.579
Временной код первого кадра : 10:00:00;03
Оригинал временного кода : Group of pictures header
GOP, открыто/закрыто : Открыто
Размер потока : 5,88 Гбайт (90%)
Язык : English
Default : Нет
Forced : Нет
Основные цвета : BT.601 NTSC
Характеристики трансфера : BT.601
Коэффициенты матрицы : BT.601Аудио #1
Идентификатор : 2
Формат : AC-3
Формат/Информация : Audio Coding 3
Коммерческое название : Dolby Digital
Идентификатор кодека : A_AC3
Продолжительность : 2 ч. 20 м.
Вид битрейта : Постоянный
Битрейт : 192 Кбит/сек
Каналы : 2 канала
Channel layout : L R
Частота : 48,0 КГц
Частота кадров : 31,250 кадров/сек (1536 SPF)
Битовая глубина : 16 бит
Метод сжатия : С потерями
Размер потока : 193 Мбайт (3%)
Заголовок : DVO
Язык : Russian
ServiceKind/String : Complete Main
Default : Да
Forced : НетАудио #2
Идентификатор : 3
Формат : AC-3
Формат/Информация : Audio Coding 3
Коммерческое название : Dolby Digital
Идентификатор кодека : A_AC3
Продолжительность : 2 ч. 20 м.
Вид битрейта : Постоянный
Битрейт : 448 Кбит/сек
Каналы : 6 каналов
Channel layout : L R C LFE Ls Rs
Частота : 48,0 КГц
Частота кадров : 31,250 кадров/сек (1536 SPF)
Битовая глубина : 16 бит
Метод сжатия : С потерями
Задержка видео : 5 мс.
Размер потока : 450 Мбайт (7%)
Язык : Hindi
ServiceKind/String : Complete Main
Default : Нет
Forced : НетТекст #1
Идентификатор : 4
Формат : UTF-8
Идентификатор кодека : S_TEXT/UTF8
Идентификатор кодека/Информация : UTF-8 Plain Text
Продолжительность : 2 ч. 10 м.
Битрейт : 35 бит/сек
ElementCount : 935
Размер потока : 33,9 Кбайт (0%)
Язык : English
Default : Нет
Forced : НетТекст #2
Идентификатор : 5
Формат : VobSub
Режим смешивания : zlib
Идентификатор кодека : S_VOBSUB
Идентификатор кодека/Информация : Picture based subtitle format used on DVDs
Продолжительность : 2 ч. 10 м.
Битрейт : 1594 бит/сек
ElementCount : 935
Размер потока : 1,49 Мбайт (0%)
Язык : English
Default : Нет
Forced : НетМеню
00:00:00.000 : en:Chapter 01
00:01:00.727 : en:Chapter 02
00:03:10.690 : en:Chapter 03
00:03:43.656 : en:Chapter 04
00:10:07.540 : en:Chapter 05
00:12:17.670 : en:Chapter 06
00:22:39.257 : en:Chapter 07
00:24:35.941 : en:Chapter 08
00:27:21.206 : en:Chapter 09
00:30:35.099 : en:Chapter 10
00:42:28.646 : en:Chapter 11
00:45:36.467 : en:Chapter 12
00:50:12.776 : en:Chapter 13
00:53:47.057 : en:Chapter 14
01:01:40.296 : en:Chapter 15
01:06:29.618 : en:Chapter 16
01:13:31.240 : en:Chapter 17
01:15:17.079 : en:Chapter 18
01:19:49.484 : en:Chapter 19
01:24:03.671 : en:Chapter 20
01:30:30.158 : en:Chapter 21
01:40:00.561 : en:Chapter 22
01:50:49.476 : en:Chapter 23
01:53:33.439 : en:Chapter 24
01:55:36.629 : en:Chapter 25
02:01:54.440 : en:Chapter 26
02:04:41.874 : en:Chapter 27
02:08:39.578 : en:Chapter 28
02:11:33.952 : en:Chapter 29
02:14:33.965 : en:Chapter 30
02:15:16.041 : en:Chapter 31

Скриншоты

DVD-RipВсем мои фильмам нужны сиды, так что не уходите с раздачи!A CultFilms™ Remux

Чтобы скачать этот контент, Вам необходимо:
1. Скачать и установить торрент-клиент [клик для Windows], (для мобильного найдите на Play Маркет).
2. Кликнуть по [Скачать]


Внимание.
Если проверка ВЫ НЕ РОБОТ - не работает, значит Вы используете устаревший браузер.
Установите актуальный браузер и повторно кликните по [Скачать]
Безопасность: торрент-клиент разрешён АВ Касперского.

[mail.asmlocator.ru].t638515.torrent 
Торрент: Зарегистрирован [ 2019-05-19 05:25 ] · 0F8B89B52EE7C4500BC49789CAA731322AE9558F

Скачать .torrent

Скачать

33 KB

Статус: проверено
Скачан: 0 раз
Размер: 6,52 GB
terms.php
[Профиль] [ЛС]
Показать сообщения:    
Ответить на тему

Текущее время: 15-Ноя 15:34

Часовой пояс: UTC ± 0



Вы не можете начинать темы
Вы не можете отвечать на сообщения
Вы не можете редактировать свои сообщения
Вы не можете удалять свои сообщения
Вы не можете голосовать в опросах
Вы не можете прикреплять файлы к сообщениям
Вы можете скачивать файлы
Верим фактам, а не вранью Путина! Факт, что Правительство ведёт Россию к истреблению.
Так как численность населения падает, даже не смотря на приток эмигрантов!
Русская нация вымирает и вырождается, смешиваясь с эмигрантами!
Факт, что военных и граждан предприятий заставляют голосовать за партию Единая Россия и Путина
ПОД СТРАХОМ УВОЛЬНЕНИЯ!
Нам не нужно Правительство, блокирующее личную жизнь, интернет, нарушающее сохранность данных.
Все эти действия финансируются за счёт народа!