Гринч в 3Д / The Grinch 3D (Ярроу Чейни, Скотт Моужер / Yarrow Cheney, Scott Mosier) [2018, мультфильм, фэнтези, комедия, семейный, BDRip, 1080p] OverUnder / Вертикальная стереопара

Ответить на тему
Статистика раздачи
Размер:  8,36 GB   |    Зарегистрирован:  6 месяцев 8 дней   |    Скачан:  0 раз

Полного источника не было: Никогда

 
   
 
 
Автор Сообщение

star21 ®

Пол: Женский

Стаж: 3 года 10 месяцев

Сообщений: 551989

Откуда: Екатеринбург

Создавать темы 14-Мар-2019 05:20

[Цитировать]

Гринч / The Grinch Год выпуска: 2018
Страна: Франция, Китай, Япония, США (Illumination Entertainment, Universal Pictures)
Жанр: мультфильм, фэнтези, комедия, семейный
Продолжительность: 01:25:50Перевод: Любительский многоголосый закадровый (@MUZOBOZ@)
Русские субтитры: нет
Режиссер на русском: Ярроу Чейни, Скотт Моужер / Yarrow Cheney, Scott MosierРоли озвучивали: Бенедикт Камбербэтч, Кэмерон Сили, Рашида Джонс, Фаррелл Уильямс, Тристан О`Хара, Кенан Томпсон, Сэм Лаваньино, Рамон Хэмилтон, Анджела Лэнсбери, Скарлет Эстевез, Майкл Битти, Лори Алан, Ивэн КишиямаОписание: Любой бы на месте Гринча позеленел и взбесился. Как порядочный интроверт он живёт в тёмной пещере на самой вершине горы подальше ото всех, но эти «все» готовят грандиознейшее празднование Нового года. Они шумят, всё украшают и дико бесят. Кто бы отказал себе в удовольствии испортить праздник? Гринч решает украсть Новый год.Дополнительная информация по релизу: Русская дорога получена вставкой русских фраз (из дороги а-ля Кошара) в центр оригинала.Сэмпл: http://sendfile.su/1472900Качество: BDrip
Контейнер: MKV
Формат 3D: OverUnder / Вертикальная стереопара
Порядок ракурсов: левый ракурс первый
Видео кодек: x264
Аудио кодек: AC3
Видео: AVC / High@L5.0 / 23,976 fps / 1920х2160 / 12,6 Мбит/сек
Аудио: Русский / AC3 / 48 KHz / 5.1 ch / 640 Кбит/сек(@MUZOBOZ@)[ремастеринг - Ash61]
Аудио 2: Английский / AC3 / 48 KHz / 5.1 ch / 448 Кбит/сек ВНИМАНИЕ ! На встроенных ТВ-плеерах работать не будет!!!
ТВ Samsung в названии которого есть надпись Ultra HD , и LG Ultra HD 800 серии, LG C6P, Xiaomi Mi TV 2 воспроизводят полные стереопары встроенными плеерами
Железные плееры на которых воспроизводятся полные стереопары:Popcorn C-200 , Dune HD Smart D1 , Dune HD DUO , Dune HD Smart H1 , Dune HD Smart B1 , Dune HD Max , Dune HD TV-303D, Dune HD TV-102, Dune HD Base 3D, Philips HMP7001, Aura HD, MECOOL BB2
Чтобы изображение было на весь экран в плеере выставляем, если рип 1920х1600 - то выставляем 2.35:1 , если 1920х2160 - то выставляем 16:9

MediaInfo

Общее
Уникальный идентификатор : 232476171185423670948361342013177731583 (0xAEE5482D7F954626B386BD0375F219FF)
Полное имя : F:\закачки\The Grinch.Rip by SeRoGa00.mkv
Формат : Matroska
Версия формата : Version 2
Размер файла : 8,36 Гбайт
Продолжительность : 1 ч. 25 м.
Общий поток : 13,9 Мбит/сек
Дата кодирования : UTC 2019-02-03 02:02:02
Программа кодирования : mkvmerge v3.4.0 ('Rapunzel') сборка от May 15 2010 09:38:20
Библиотека кодирования : libebml v0.8.0 + libmatroska v0.9.0Видео
Идентификатор : 1
Формат : AVC
Формат/Информация : Advanced Video Codec
Профиль формата : High@L5.0
Параметр CABAC формата : Да
Параметр ReFrames формата : 4 кадра
Идентификатор кодека : V_MPEG4/ISO/AVC
Продолжительность : 1 ч. 25 м.
Битрейт : 12,6 Мбит/сек
Ширина : 1920 пикселей
Высота : 2160 пикселей
Соотношение сторон : 0,889
Частота кадров : 23,976 кадра/сек
Цветовое пространство : YUV
Субдискретизация насыщенности : 4:2:0
Битовая глубина : 8 бит
Тип развёртки : Прогрессивная
Бит/(Пиксели*Кадры) : 0.126
Размер потока : 7,54 Гбайт (90%)
Заголовок : Rip by SeRoGa00
Библиотека кодирования : x264 core 155 r2901 7d0ff22
Настройки программы : cabac=1 / ref=4 / deblock=1:-3:-3 / analyse=0x3:0x113 / me=umh / subme=10 / psy=1 / psy_rd=1.00:0.15 / mixed_ref=1 / me_range=24 / chroma_me=1 / trellis=2 / 8x8dct=1 / cqm=0 / deadzone=21,11 / fast_pskip=1 / chroma_qp_offset=-3 / threads=18 / lookahead_threads=6 / sliced_threads=0 / nr=0 / decimate=0 / interlaced=0 / bluray_compat=0 / constrained_intra=0 / bframes=10 / b_pyramid=2 / b_adapt=2 / b_bias=0 / direct=3 / weightb=1 / open_gop=0 / weightp=2 / keyint=250 / keyint_min=23 / scenecut=40 / intra_refresh=0 / rc_lookahead=60 / rc=crf / mbtree=1 / crf=16.5 / qcomp=0.60 / qpmin=10 / qpmax=69 / qpstep=4 / vbv_maxrate=40000 / vbv_bufsize=40000 / crf_max=0.0 / nal_hrd=none / filler=0 / ip_ratio=1.40 / aq=1:1.00
Язык : English
Default : Нет
Forced : НетАудио #1
Идентификатор : 2
Формат : AC-3
Формат/Информация : Audio Coding 3
Расширение режима : CM (complete main)
Параметр Endianness формата : Big
Идентификатор кодека : A_AC3
Продолжительность : 1 ч. 25 м.
Вид битрейта : Постоянный
Битрейт : 640 Кбит/сек
Каналы : 6 каналов
Расположение каналов : Front: L C R, Side: L R, LFE
Частота : 48,0 КГц
Битовая глубина : 16 бит
Метод сжатия : С потерями
Размер потока : 393 Мбайт (5%)
Язык : Russian
Default : Да
Forced : НетАудио #2
Идентификатор : 3
Формат : AC-3
Формат/Информация : Audio Coding 3
Расширение режима : CM (complete main)
Параметр Endianness формата : Big
Идентификатор кодека : A_AC3
Продолжительность : 1 ч. 25 м.
Вид битрейта : Постоянный
Битрейт : 448 Кбит/сек
Каналы : 6 каналов
Расположение каналов : Front: L C R, Side: L R, LFE
Частота : 48,0 КГц
Битовая глубина : 16 бит
Метод сжатия : С потерями
Размер потока : 275 Мбайт (3%)
Язык : English
Default : Нет
Forced : НетМеню
00:00:00.000 : :1
00:05:40.298 : :2
00:10:35.927 : :3
00:14:14.103 : :4
00:17:45.106 : :5
00:22:19.296 : :6
00:26:28.337 : :7
00:30:45.093 : :8
00:34:46.584 : :9
00:38:37.190 : :10
00:44:40.595 : :11
00:47:27.678 : :12
00:52:37.488 : :13
00:56:33.181 : :14
01:01:04.995 : :15
01:05:34.639 : :16
01:07:23.456 : :17
01:12:14.914 : :18
01:14:12.782 : :19
01:18:08.309 : :20

Скриншоты


Чтобы скачать этот контент, Вам необходимо:
1. Скачать и установить торрент-клиент [клик для Windows], (для мобильного найдите на Play Маркет).
2. Кликнуть по [Скачать]


Внимание.
Если проверка ВЫ НЕ РОБОТ - не работает, значит Вы используете устаревший браузер.
Установите актуальный браузер и повторно кликните по [Скачать]
Безопасность: торрент-клиент разрешён АВ Касперского.

[asmlocator.ru].t618832.torrent 
Торрент: Зарегистрирован [ 2019-03-14 05:20 ] · 07391C3A27E86944E1565E07F0D055EC6B5CA7E1

Скачать .torrent

Скачать

42 KB

Статус: проверено
Скачан: 0 раз
Размер: 8,36 GB
terms.php
[Профиль] [ЛС]
Показать сообщения:    
Ответить на тему

Текущее время: 22-Сен 05:35

Часовой пояс: UTC ± 0



Вы не можете начинать темы
Вы не можете отвечать на сообщения
Вы не можете редактировать свои сообщения
Вы не можете удалять свои сообщения
Вы не можете голосовать в опросах
Вы не можете прикреплять файлы к сообщениям
Вы можете скачивать файлы
Верим фактам, а не вранью Путина! Факт, что Правительство ведёт Россию к истреблению.
Так как численность населения падает, даже не смотря на приток эмигрантов!
Русская нация вымирает и вырождается, смешиваясь с эмигрантами!
Факт, что военных и граждан предприятий заставляют голосовать за партию Единая Россия и Путина
ПОД СТРАХОМ УВОЛЬНЕНИЯ!
Нам не нужно Правительство, блокирующее личную жизнь, интернет, нарушающее сохранность данных.
Все эти действия финансируются за счёт народа!