VA • CMA Country Christmas [2018, Pop, Country, Jazz, HDTV, 720p]

Ответить на тему
Статистика раздачи
Размер:  9,61 GB   |    Зарегистрирован:  9 месяцев 3 дня   |    Скачан:  0 раз

Полного источника не было: Никогда

 
   
 
 
Автор Сообщение

star21 ®

Пол: Женский

Стаж: 4 года 1 месяц

Сообщений: 551946

Откуда: Екатеринбург

Создавать темы 06-Мар-2019 20:40

[Цитировать]



2018
Жанр: Pop, Country, Jazz
Продолжительность: 01:26:53
Год выпуска: 2018
Качество: HDTV
Разрешение видео/развертка: 720p
Контейнер: MKV
Видео кодек: H.264
Аудио кодек: AC3
Видео: MPEG4 Video (H264) 1280x720 59.94fps 15.4 Mb/s
Аудио: Dolby AC3 48000Hz 6ch 448kbps

Треклист

Hosted by and featuring performances from iconic entertainer Reba McEntireHave Yourself a Merry Little Christmas - Dan + Shay
Silent Night - Amy Grant
Tennessee Christmas - Amy Grant
Winter Wonderland - Brad Paisley
Jingle Bells - Brad Paisley
Let It Snow! Let It Snow! Let It Snow! - Brett Eldredge
White Christmas - Brett Eldredge
O Holy Night - Brett Young
Christmas Time Is Here - Diana Krall
Sleigh Ride - Diana Krall & The Clayton-Hamilton Jazz Orchestra
The Christmas Song - The Isaacs
It's Christmastime Again - The Isaacs
Dance of the Sugar Plum Fairy - Lindsey Stirling
Carol of the Bells - Lindsey Stirling
Silver Bells - Martina McBride
O Come All Ye Faithful - Martina McBride
What Child Is This (feat. Martina McBride) - Michael W. Smith
It's the Most Wonderful Time of the Year - Michael W. Smith
Jingle Bell Rock - Reba McEntire
Santa Claus Is Coming To Town - Reba McEntire
Snowfall - Tony Bennett
My Favorite Things - Tony Bennett

Отчёт MediaInfo / BDInfo

GeneralUnique ID                      : 274549511550612036459703456445416147627 (0xCE8C50035B59CFB1915BFEF07AC90AAB)Complete name                  : F:\VA - CMA Country Christmas 2018.mkvFormat                         : MatroskaFormat version                 : Version 4File size                      : 9.61 GiBDuration                       : 1 h 26 minOverall bit rate               : 15.8 Mb/sEncoded date                   : UTC 2018-12-22 10:15:50Writing application            : mkvmerge v29.0.0 ('Like It Or Not') 64-bitWriting library                : libebml v1.3.6 + libmatroska v1.4.9VideoID                             : 1Format                         : AVCFormat/Info                    : Advanced Video CodecFormat profile                 : High@L4.1Format settings                : CABAC / 4 Ref FramesFormat settings, CABAC         : YesFormat settings, ReFrames      : 4 framesCodec ID                       : V_MPEG4/ISO/AVCDuration                       : 1 h 26 minBit rate                       : 15.4 Mb/sWidth                          : 1 280 pixelsHeight                         : 720 pixelsDisplay aspect ratio           : 16:9Frame rate mode                : ConstantFrame rate                     : 59.940 (60000/1001) FPSColor space                    : YUVChroma subsampling             : 4:2:0Bit depth                      : 8 bitsScan type                      : ProgressiveBits/(Pixel*Frame)             : 0.278Stream size                    : 9.33 GiB (97%)Default                        : YesForced                         : NoColor range                    : LimitedColor primaries                : BT.709Transfer characteristics       : BT.709Matrix coefficients            : BT.709AudioID                             : 2Format                         : AC-3Format/Info                    : Audio Coding 3Commercial name                : Dolby DigitalCodec ID                       : A_AC3Duration                       : 1 h 26 minBit rate mode                  : ConstantBit rate                       : 448 kb/sChannel(s)                     : 6 channelsChannel layout                 : L R C LFE Ls RsSampling rate                  : 48.0 kHzFrame rate                     : 31.250 FPS (1536 SPF)Bit depth                      : 16 bitsCompression mode               : LossyStream size                    : 278 MiB (3%)Service kind                   : Complete MainDefault                        : YesForced                         : No

Чтобы скачать этот контент, Вам необходимо:
1. Скачать и установить торрент-клиент [клик для Windows], (для мобильного найдите на Play Маркет).
2. Кликнуть по [Скачать]


Внимание.
Если проверка ВЫ НЕ РОБОТ - не работает, значит Вы используете устаревший браузер.
Установите актуальный браузер и повторно кликните по [Скачать]
Безопасность: торрент-клиент разрешён АВ Касперского.

[mail.asmlocator.ru].t616473.torrent 
Торрент: Зарегистрирован [ 2019-03-06 20:40 ] · 439633083FA999A41F93C5105612D01CECCE29BD

Скачать .torrent

Скачать

24 KB

Статус: проверено
Скачан: 0 раз
Размер: 9,61 GB
terms.php
[Профиль] [ЛС]
Показать сообщения:    
Ответить на тему

Текущее время: 10-Дек 12:59

Часовой пояс: UTC ± 0



Вы не можете начинать темы
Вы не можете отвечать на сообщения
Вы не можете редактировать свои сообщения
Вы не можете удалять свои сообщения
Вы не можете голосовать в опросах
Вы не можете прикреплять файлы к сообщениям
Вы можете скачивать файлы
Верим фактам, а не вранью Путина! Факт, что Правительство ведёт Россию к истреблению.
Так как численность населения падает, даже не смотря на приток эмигрантов!
Русская нация вымирает и вырождается, смешиваясь с эмигрантами!
Факт, что военных и граждан предприятий заставляют голосовать за партию Единая Россия и Путина
ПОД СТРАХОМ УВОЛЬНЕНИЯ!
Нам не нужно Правительство, блокирующее личную жизнь, интернет, нарушающее сохранность данных.
Все эти действия финансируются за счёт народа!