(Gothic Metal) [WEB] Longed For Fusion - Salvation - 2007, FLAC (tracks), lossless

Ответить на тему
Статистика раздачи
Размер:  294 MB   |    Зарегистрирован:  6 месяцев 16 дней   |    Скачан:  0 раз

Полного источника не было: Никогда

 
   
 
 
Автор Сообщение

star21 ®

Пол: Женский

Стаж: 3 года 10 месяцев

Сообщений: 551989

Откуда: Екатеринбург

Создавать темы 01-Мар-2019 14:30

[Цитировать]

Longed For Fusion / Salvation Жанр: Gothic Metal
Носитель: WEB deezer
Год издания: 2007
Страна исполнителя (группы): Germany
Аудиокодек: FLAC (*.flac)
Тип рипа: tracks
Битрейт аудио: lossless
Продолжительность: 0:39:15
Источник: deezer.com
Наличие сканов в содержимом раздачи: нет
Треклист:
01. Sleepless in a Nightmare (4:45)
02. Salvation (7:20)
03. Prologue (2:43)
04. Endless Love (5:34)
05. Prophecy, Pt. I (5:30)
06. Resurrection (4:06)
07. Prophecy, Pt. II (6:40)
08. Epilogue (2:36)

Лог проверки качества

CUE Corrector v. 7.6.3 / b. 598 (May 12, 2016)————————————————————————————————————————————————————————————————————————Longed for Fusion / SalvationFolder: Longed for Fusion - Salvation 2007Audio files:    01 - Sleepless in a Nightmare.flac [04:45.24; FLAC • 1082 kbps • 16 bit \ 44100 Hz • stereo; 36,83 MB (38 617 272 bytes)]    02 - Salvation.flac [07:20.33; FLAC • 1050 kbps • 16 bit \ 44100 Hz • stereo; 55,17 MB (57 846 587 bytes)]    03 - Prologue.flac [02:43.32; FLAC • 1088 kbps • 16 bit \ 44100 Hz • stereo; 21,21 MB (22 240 718 bytes)]    04 - Endless Love.flac [05:33.61; FLAC • 981 kbps • 16 bit \ 44100 Hz • stereo; 39,06 MB (40 952 265 bytes)]    05 - Prophecy, Pt. I.flac [05:29.65; FLAC • 986 kbps • 16 bit \ 44100 Hz • stereo; 38,81 MB (40 695 351 bytes)]    06 - Resurrection.flac [04:06.26; FLAC • 1048 kbps • 16 bit \ 44100 Hz • stereo; 30,79 MB (32 288 191 bytes)]    07 - Prophecy, Pt. II.flac [06:40.14; FLAC • 1014 kbps • 16 bit \ 44100 Hz • stereo; 48,39 MB (50 743 490 bytes)]    08 - Epilogue.flac [02:36.12; FLAC • 1149 kbps • 16 bit \ 44100 Hz • stereo; 21,40 MB (22 439 997 bytes)]Accuracy: -m0File 01 - Sleepless in a Nightmare - 100% CDDA [04:45.24]File 02 - Salvation                - 100% CDDA [07:20.33]File 03 - Prologue                 -  99% CDDA [02:43.32]File 04 - Endless Love             - 100% CDDA [05:33.61]File 05 - Prophecy, Pt. I          - 100% CDDA [05:29.65]File 06 - Resurrection             - 100% CDDA [04:06.26]File 07 - Prophecy, Pt. II         - 100% CDDA [06:40.14]File 08 - Epilogue                 - 100% CDDA [02:36.12]————— Summary: —————These tracks looks like CDDA with probability 100%.————————————————————————————————————————————————————————————————————————ANALYZER:    auCDtect: CD records authenticity detector, version 0.8.2    Copyright (c) 2004 Oleg Berngardt. All rights reserved.    Copyright (c) 2004 Alexander Djourik. All rights reserved.Time elapsed: 1 m 48 sLog created at February 12, 2019 21:34:09=== D6DCE3063645990C6106D990B766FCEFC66D5D0114569F20200DE26C907A9191 ===

Замер динамического диапазона

foobar2000 1.4 / Замер динамического диапазона (DR) 1.1.1Дата отчёта:  2019-02-12 21:36:43--------------------------------------------------------------------------------Анализ:   Longed for Fusion / Salvation--------------------------------------------------------------------------------DR         Пики         RMS           Продолжительность трека--------------------------------------------------------------------------------DR7       -0.24 дБ    -7.96 дБ      4:45 01-Sleepless in a NightmareDR7       -0.20 дБ    -7.81 дБ      7:20 02-SalvationDR7       -0.26 дБ    -8.58 дБ      2:43 03-PrologueDR6       -0.23 дБ    -8.44 дБ      5:34 04-Endless LoveDR6       -0.24 дБ    -8.62 дБ      5:30 05-Prophecy, Pt. IDR7       -0.26 дБ    -8.50 дБ      4:06 06-ResurrectionDR7       -0.26 дБ    -9.39 дБ      6:40 07-Prophecy, Pt. IIDR7       -0.26 дБ    -8.16 дБ      2:36 08-Epilogue--------------------------------------------------------------------------------Количество треков: 8Реальные значения DR: DR7Частота:   44100 ГцКаналов:   2Разрядность:   16Битрейт:   1033 кбит/сКодек:   FLAC================================================================================

Чтобы скачать этот контент, Вам необходимо:
1. Скачать и установить торрент-клиент [клик для Windows], (для мобильного найдите на Play Маркет).
2. Кликнуть по [Скачать]


Внимание.
Если проверка ВЫ НЕ РОБОТ - не работает, значит Вы используете устаревший браузер.
Установите актуальный браузер и повторно кликните по [Скачать]
Безопасность: торрент-клиент разрешён АВ Касперского.

[asmlocator.ru].t614626.torrent 
Торрент: Зарегистрирован [ 2019-03-01 14:30 ] · BC35238BD0F43D326B0E83955BAF0BB374156789

Скачать .torrent

Скачать

12 KB

Статус: проверено
Скачан: 0 раз
Размер: 294 MB
terms.php
[Профиль] [ЛС]
Показать сообщения:    
Ответить на тему

Текущее время: 18-Сен 13:19

Часовой пояс: UTC ± 0



Вы не можете начинать темы
Вы не можете отвечать на сообщения
Вы не можете редактировать свои сообщения
Вы не можете удалять свои сообщения
Вы не можете голосовать в опросах
Вы не можете прикреплять файлы к сообщениям
Вы можете скачивать файлы
Верим фактам, а не вранью Путина! Факт, что Правительство ведёт Россию к истреблению.
Так как численность населения падает, даже не смотря на приток эмигрантов!
Русская нация вымирает и вырождается, смешиваясь с эмигрантами!
Факт, что военных и граждан предприятий заставляют голосовать за партию Единая Россия и Путина
ПОД СТРАХОМ УВОЛЬНЕНИЯ!
Нам не нужно Правительство, блокирующее личную жизнь, интернет, нарушающее сохранность данных.
Все эти действия финансируются за счёт народа!