Элвис Пресли: Искатель / Elvis Presley: The Searcher (Том Зимни / Thom Zimny) [2018, Документальный, биография, HDTVRip] MVO + Eng

Ответить на тему
Статистика раздачи
Размер:  2,91 GB   |    Зарегистрирован:  7 месяцев 22 дня   |    Скачан:  0 раз

Полного источника не было: 1 час 4 минуты

 
   
 
 
Автор Сообщение

Создавать темы 19-Фев-2019 20:16

Элвис Пресли: Искатель / Elvis Presley: The Searcher Дата/Год выпуска: 2018
Страна: США
Жанр: Документальный, биография
Продолжительность: 01:48:09+01:37:03
Перевод: Профессиональный (многоголосый закадровый)
Доп. инфо о переводе: 1 канал
Русские субтитры: нетОригинальная аудиодорожка: английский
Режиссер: Том Зимни / Thom ZimnyОписание: Мальчик из городка Тьюпело вырос и стал известнейшим музыкантом. Пока он взрослел, на него оказало влияние огромное количество стилей и исполнителей. Пресли всю жизнь находился в поиске самовыражения, и ему удалось создать революционное звучание. В фильме «Искатель» мы проследим творческое путешествие из детства до последних записей в «Комнате джунглей» в 1976 году. Здесь будут потрясающие кадры из Грейсленда, знаменитого поместья Элвиса, и более 20 новых интервью от первого лица с сессионными музыкантами, продюсерами, звукорежиссерами, директорами и другими людьми, которые были знакомы с Пресли или на кого он оказал заметное влияние. Вы впервые увидите фотографии и видеоматериалы, полученные из частных коллекций со всего мира. Оригинальную музыку исполняет Майк Маккреди, ведущий гитарист группы «Pearl Jam».Сэмпл: http://multi-up.com/1223486качество: HDTVRip
формат: AVI
Видео: MPEG4, XviD, 720x304 (2.35:1), 23.976 fps, 1 337 Kbps (0.255 bit/pixel)
Аудио: AC-3, 48.0 KHz, 2 ch, 192 Kbps, CBR - русский
Аудио 2: AC-3, 48.0 KHz, 6 ch, 384 Kbps, CBR - английский

MediaInfo

ОбщееПолное имя                               : F:\Элвис Пресли. Искатель. Часть 1.aviФормат                                   : AVIФормат/Информация                        : Audio Video InterleaveРазмер файла                             : 1,46 ГбайтПродолжительность                        : 1 ч. 48 м.Общий поток                              : 1927 Кбит/секНазвание фильма                          : Элвис Пресли: Искатель / Elvis Presley: The Searcher (2018)Программа кодирования                    : VirtualDubMod 1.5.10.2 (build 2540/release)Библиотека кодирования                   : VirtualDubMod build 2540/releaseАвторское право                          : miha2154ВидеоИдентификатор                            : 0Формат                                   : MPEG-4 VisualПрофиль формата                          : Advanced Simple@L5Настройки формата                        : BVOP1 / Custom MatrixПараметр BVOP формата                    : 1Параметр QPel формата                    : НетПараметр GMC формата                     : Без точки переходаПараметр матрицы формата                 : ВыборочнаяИдентификатор кодека                     : XVIDИдентификатор кодека/Подсказка           : XviDПродолжительность                        : 1 ч. 48 м.Битрейт                                  : 1337 Кбит/секШирина                                   : 720 пикселейВысота                                   : 304 пикселяСоотношение сторон                       : 2,35:1Частота кадров                           : 23,976 (24000/1001) кадра/секЦветовое пространство                    : YUVСубдискретизация насыщенности            : 4:2:0Битовая глубина                          : 8 битТип развёртки                            : ПрогрессивнаяМетод сжатия                             : С потерямиБит/(Пиксели*Кадры)                      : 0.255Размер потока                            : 1,01 Гбайт (69%)Библиотека кодирования                   : XviD 65Аудио #1Идентификатор                            : 1Формат                                   : AC-3Формат/Информация                        : Audio Coding 3Коммерческое название                    : Dolby DigitalИдентификатор кодека                     : 2000Продолжительность                        : 1 ч. 48 м.Вид битрейта                             : ПостоянныйБитрейт                                  : 192 Кбит/секКаналы                                   : 2 каналаChannel layout                           : L RЧастота                                  : 48,0 КГцЧастота кадров                           : 31,250 кадров/сек (1536 SPF)Битовая глубина                          : 16 битМетод сжатия                             : С потерямиРазмер потока                            : 149 Мбайт (10%)Выравнивание                             : Разделение по промежуткамПродолжительность промежутка             : 42  мс. (1,00 видеокадр)Время предзагрузки промежутка            : 500  мс.Заголовок                                : Профессиональный (многоголосый, закадровый) 1 каналServiceKind/String                       : Complete MainАудио #2Идентификатор                            : 2Формат                                   : AC-3Формат/Информация                        : Audio Coding 3Коммерческое название                    : Dolby DigitalИдентификатор кодека                     : 2000Продолжительность                        : 1 ч. 48 м.Вид битрейта                             : ПостоянныйБитрейт                                  : 384 Кбит/секКаналы                                   : 6 каналовChannel layout                           : L R C LFE Ls RsЧастота                                  : 48,0 КГцЧастота кадров                           : 31,250 кадров/сек (1536 SPF)Битовая глубина                          : 16 битМетод сжатия                             : С потерямиРазмер потока                            : 297 Мбайт (20%)Выравнивание                             : Разделение по промежуткамПродолжительность промежутка             : 42  мс. (1,00 видеокадр)Время предзагрузки промежутка            : 500  мс.Заголовок                                : АнглийскийServiceKind/String                       : Complete Main

Скриншоты

Чтобы скачать этот контент, Вам необходимо:
1. Скачать и установить торрент-клиент [клик для Windows], (для мобильного найдите на Play Маркет).
2. Кликнуть по [Скачать]


Внимание.
Если проверка ВЫ НЕ РОБОТ - не работает, значит Вы используете устаревший браузер.
Установите актуальный браузер и повторно кликните по [Скачать]
Безопасность: торрент-клиент разрешён АВ Касперского.

[asmlocator.ru].t611887.torrent 
Торрент: Зарегистрирован [ 2019-02-19 20:15 ] · C06E368C9818D665403D4659939C9AD4E9C66697

Скачать .torrent

Скачать

15 KB

Статус: проверено
Скачан: 0 раз
Размер: 2,91 GB
terms.php
 
Показать сообщения:    
Ответить на тему

Текущее время: 14-Окт 01:34

Часовой пояс: UTC ± 0



Вы не можете начинать темы
Вы не можете отвечать на сообщения
Вы не можете редактировать свои сообщения
Вы не можете удалять свои сообщения
Вы не можете голосовать в опросах
Вы не можете прикреплять файлы к сообщениям
Вы можете скачивать файлы
Верим фактам, а не вранью Путина! Факт, что Правительство ведёт Россию к истреблению.
Так как численность населения падает, даже не смотря на приток эмигрантов!
Русская нация вымирает и вырождается, смешиваясь с эмигрантами!
Факт, что военных и граждан предприятий заставляют голосовать за партию Единая Россия и Путина
ПОД СТРАХОМ УВОЛЬНЕНИЯ!
Нам не нужно Правительство, блокирующее личную жизнь, интернет, нарушающее сохранность данных.
Все эти действия финансируются за счёт народа!