Эпоха Хаббла / The Age of Hubble (Томас Лукас / Thomas Lucas) [2014, Документальный, космос, WEB-DL 1080p]

Ответить на тему
Статистика раздачи
Размер:  3,36 GB   |    Зарегистрирован:  8 месяцев 12 дней   |    Скачан:  0 раз

Полного источника не было: Никогда

 
   
 
 
Автор Сообщение

star21 ®

Пол: Женский

Стаж: 3 года 11 месяцев

Сообщений: 551988

Откуда: Екатеринбург

Создавать темы 01-Фев-2019 07:25

[Цитировать]

Эпоха Хаббла / The Age of Hubble Год выпуска: 2014
Страна: США
Студия: Thomas Lucas Productions, Inc.
Жанр: Документальный, космос
Продолжительность: 00:50:00
Перевод: Одноголосый закадровый
Доп. инфо о переводе: SDI Media
Русские субтитры: нетРежиссер: Томас Лукас / Thomas LucasОписание: Телескопы... Они улавливают фотоны, несущиеся в космосе, измеряя их энергию и определяя источник их появления. Это армия высокотехнологичных приборов, к которым так же относится и космический телескоп Хаббл, проникает во всё более удаленные уголки Вселенной. Это позволяет ученым собирать массу данных, которые в дальнейшем используются для построения математических моделей, объясняющих как формируются галактики, как рождаются и умирают звезды, как образовалась Вселенная и жизнь в ней...Доп. информация: Релиз:
и Сэмпл: http://multi-up.com/1219868Тип релиза: WEB-DL 1080p
Контейнер: MKVВидео: 1920x1080 at 25.000 fps, MPEG-4 AVC, 9007 kbps avg
Аудио: Русский: 48 kHz, AC3, 2/0 (L,R) ch, ~192.00 kbps avg | SDI Media |
Аудио 2: Українська: 48 kHz, AC3, 2/0 (L,R) ch, ~192.00 kbps avg | дубляж, Мега |
Аудио 3: English: 48 kHz, E-AC3, 2/0 (L,R) ch, ~224.00 kbps avg
Формат субтитров: English, softsub (SRT)

MediaInfo

ОбщееПолное имя                               : The.Age.of.Hubble.(2014).1080p.WEB-DL.Rus.Ukr.Eng-BLUEBIRD.mkvФормат                                   : MatroskaВерсия формата                           : Version 4 / Version 2Размер файла                             : 3,36 ГбайтПродолжительность                        : 50 м. 0 с.Режим общего битрейта                    : ПеременныйОбщий поток                              : 9618 Кбит/секДата кодирования                         : UTC 2019-01-06 19:00:54Программа кодирования                    : mkvmerge v8.0.0 ('Til The Day That I Die') 32bitБиблиотека кодирования                   : libebml v1.3.1 + libmatroska v1.4.2ВидеоИдентификатор                            : 1Формат                                   : AVCФормат/Информация                        : Advanced Video CodecПрофиль формата                          : High@L4Настройки формата                        : CABAC / 4 Ref FramesПараметр CABAC формата                   : ДаПараметр RefFrames формата               : 4 кадраИдентификатор кодека                     : V_MPEG4/ISO/AVCПродолжительность                        : 50 м. 0 с.Вид битрейта                             : ПеременныйБитрейт                                  : 9007 Кбит/секМаксимальный битрейт                     : 15,0 Мбит/секШирина                                   : 1920 пикселейВысота                                   : 1080 пикселейСоотношение сторон                       : 16:9Режим частоты кадров                     : ПостоянныйЧастота кадров                           : 25,000 кадров/секЦветовое пространство                    : YUVСубдискретизация насыщенности            : 4:2:0Битовая глубина                          : 8 битТип развёртки                            : ПрогрессивнаяБит/(Пиксели*Кадры)                      : 0.174Размер потока                            : 3,15 Гбайт (94%)Библиотека кодирования                   : x264 core 148 r2623 d5b2374Настройки программы                      : cabac=1 / ref=4 / deblock=1:-1:-1 / analyse=0x3:0x133 / me=umh / subme=9 / psy=1 / psy_rd=1.00:0.15 / mixed_ref=1 / me_range=24 / chroma_me=1 / trellis=2 / 8x8dct=1 / cqm=0 / deadzone=21,11 / fast_pskip=1 / chroma_qp_offset=-3 / threads=34 / lookahead_threads=5 / sliced_threads=0 / nr=150 / decimate=1 / interlaced=0 / bluray_compat=0 / constrained_intra=0 / bframes=8 / b_pyramid=2 / b_adapt=2 / b_bias=0 / direct=3 / weightb=1 / open_gop=0 / weightp=2 / keyint=125 / keyint_min=63 / scenecut=0 / intra_refresh=0 / rc_lookahead=125 / rc=crf / mbtree=1 / crf=18.0 / qcomp=0.60 / qpmin=0 / qpmax=69 / qpstep=4 / vbv_maxrate=15000 / vbv_bufsize=31250 / crf_max=0.0 / nal_hrd=vbr / filler=0 / ip_ratio=1.40 / aq=3:1.00Default                                  : ДаForced                                   : НетЦветовой диапазон                        : LimitedОсновные цвета                           : BT.709Характеристики трансфера                 : BT.709Коэффициенты матрицы                     : BT.709Аудио #1Идентификатор                            : 2Формат                                   : AC-3Формат/Информация                        : Audio Coding 3Идентификатор кодека                     : A_AC3Продолжительность                        : 50 м. 0 с.Вид битрейта                             : ПостоянныйБитрейт                                  : 192 Кбит/секКаналы                                   : 2 каналаРасположение каналов                     : Front: L RЧастота                                  : 48,0 КГцЧастота кадров                           : 31,250 кадров/сек (1536 SPF)Битовая глубина                          : 16 битМетод сжатия                             : С потерямиРазмер потока                            : 68,7 Мбайт (2%)Заголовок                                : rus 2.0 AC3Язык                                     : RussianServiceKind/String                       : Complete MainDefault                                  : ДаForced                                   : ДаАудио #2Идентификатор                            : 3Формат                                   : AC-3Формат/Информация                        : Audio Coding 3Идентификатор кодека                     : A_AC3Продолжительность                        : 50 м. 0 с.Вид битрейта                             : ПостоянныйБитрейт                                  : 192 Кбит/секКаналы                                   : 2 каналаРасположение каналов                     : Front: L RЧастота                                  : 48,0 КГцЧастота кадров                           : 31,250 кадров/сек (1536 SPF)Битовая глубина                          : 16 битМетод сжатия                             : С потерямиРазмер потока                            : 68,7 Мбайт (2%)Заголовок                                : ukr 2.0 AC3Язык                                     : UkrainianServiceKind/String                       : Complete MainDefault                                  : НетForced                                   : НетАудио #3Идентификатор                            : 4Формат                                   : E-AC-3Формат/Информация                        : Enhanced Audio Coding 3Идентификатор кодека                     : A_EAC3Продолжительность                        : 50 м. 0 с.Вид битрейта                             : ПостоянныйБитрейт                                  : 224 Кбит/секКаналы                                   : 2 каналаРасположение каналов                     : Front: L RЧастота                                  : 48,0 КГцЧастота кадров                           : 187,500 кадров/сек (256 SPF)Метод сжатия                             : С потерямиРазмер потока                            : 80,1 Мбайт (2%)Заголовок                                : eng 2.0 EAC3Язык                                     : EnglishServiceKind/String                       : Complete MainDefault                                  : НетForced                                   : НетТекстИдентификатор                            : 5Формат                                   : UTF-8Идентификатор кодека                     : S_TEXT/UTF8Идентификатор кодека/Информация          : UTF-8 Plain TextПродолжительность                        : 48 м. 44 с.Битрейт                                  : 57 бит/секElementCount                             : 528Размер потока                            : 20,4 Кбайт (0%)Заголовок                                : eng SRTЯзык                                     : EnglishDefault                                  : НетForced                                   : Нет

Скриншоты



Примечание

Согласно IMDB более короткая 24 минутная версия этого фильма является 29 эпизодом документального цикла Космические путешествия / Cosmic Journey

Чтобы скачать этот контент, Вам необходимо:
1. Скачать и установить торрент-клиент [клик для Windows], (для мобильного найдите на Play Маркет).
2. Кликнуть по [Скачать]


Внимание.
Если проверка ВЫ НЕ РОБОТ - не работает, значит Вы используете устаревший браузер.
Установите актуальный браузер и повторно кликните по [Скачать]
Безопасность: торрент-клиент разрешён АВ Касперского.

[asmlocator.ru].t604185.torrent 
Торрент: Зарегистрирован [ 2019-02-01 07:25 ] · 30426CE0F14F0608C6CAA3236073B89DF9225D6B

Скачать .torrent

Скачать

17 KB

Статус: проверено
Скачан: 0 раз
Размер: 3,36 GB
terms.php
[Профиль] [ЛС]
Показать сообщения:    
Ответить на тему

Текущее время: 14-Окт 01:42

Часовой пояс: UTC ± 0



Вы не можете начинать темы
Вы не можете отвечать на сообщения
Вы не можете редактировать свои сообщения
Вы не можете удалять свои сообщения
Вы не можете голосовать в опросах
Вы не можете прикреплять файлы к сообщениям
Вы можете скачивать файлы
Верим фактам, а не вранью Путина! Факт, что Правительство ведёт Россию к истреблению.
Так как численность населения падает, даже не смотря на приток эмигрантов!
Русская нация вымирает и вырождается, смешиваясь с эмигрантами!
Факт, что военных и граждан предприятий заставляют голосовать за партию Единая Россия и Путина
ПОД СТРАХОМ УВОЛЬНЕНИЯ!
Нам не нужно Правительство, блокирующее личную жизнь, интернет, нарушающее сохранность данных.
Все эти действия финансируются за счёт народа!