(Gothic/Death Metal) [WEB] Tenebrarum - Divine War - 1997/2002, FLAC (tracks), lossless

Ответить на тему
Статистика раздачи
Размер:  327 MB   |    Зарегистрирован:  7 месяцев 27 дней   |    Скачан:  0 раз

Полного источника не было: Никогда

 
   
 
 
Автор Сообщение

star21 ®

Пол: Женский

Стаж: 3 года 10 месяцев

Сообщений: 551989

Откуда: Екатеринбург

Создавать темы 24-Янв-2019 09:30

[Цитировать]

Tenebrarum / Divine War Жанр: Gothic/Death Metal
Носитель: WEB deezer
Год издания: 1997/2002
Страна исполнителя (группы): Colombia
Аудиокодек: FLAC (*.flac)
Тип рипа: tracks
Битрейт аудио: lossless
Продолжительность: 0:42:32
Источник: deezer.com
Наличие сканов в содержимом раздачи: нет
Треклист:
01. Prelude of War (1:32)
02. Goddess (3:50)
03. Spiritual (5:37)
04. Divine War (3:51)
05. Tenebrarum (3:41)
06. Lust (2:17)
07. Nocturno (3:12)
08. Moonlight (3:37)
09. El Vuelo de las Almas (4:52)
10. Angel of Stone (6:39)
11. Otoños de Alcohol (3:23)

Лог проверки качества

CUE Corrector v. 8.3.5 / b. 901 (Jan. 18, 2019)————————————————————————————————————————————————————————————————————————Tenebrarum / Divine WarFolder: Tenebrarum - Divine War 1997Audio files:    01 - Prelude of War.flac [01:32.093; FLAC • 993 kbps • 16 bit \ 44100 Hz • stereo; 10.91 MB (11 436 875 B)]    02 - Goddess.flac [03:49.973; FLAC • 1100 kbps • 16 bit \ 44100 Hz • stereo; 30.18 MB (31 649 978 B)]    03 - Spiritual.flac [05:37.053; FLAC • 995 kbps • 16 bit \ 44100 Hz • stereo; 40.01 MB (41 953 515 B)]    04 - Divine War.flac [03:50.813; FLAC • 1119 kbps • 16 bit \ 44100 Hz • stereo; 30.80 MB (32 295 401 B)]    05 - Tenebrarum.flac [03:41.320; FLAC • 1057 kbps • 16 bit \ 44100 Hz • stereo; 27.91 MB (29 261 060 B)]    06 - Lust.flac [02:17.240; FLAC • 1122 kbps • 16 bit \ 44100 Hz • stereo; 18.36 MB (19 256 030 B)]    07 - Nocturno.flac [03:11.947; FLAC • 1060 kbps • 16 bit \ 44100 Hz • stereo; 24.28 MB (25 455 426 B)]    08 - Moonlight.flac [03:37.347; FLAC • 1085 kbps • 16 bit \ 44100 Hz • stereo; 28.12 MB (29 490 062 B)]    09 - El Vuelo de las Almas.flac [04:52.000; FLAC • 1050 kbps • 16 bit \ 44100 Hz • stereo; 36.58 MB (38 355 888 B)]    10 - Angel of Stone.flac [06:39.480; FLAC • 1113 kbps • 16 bit \ 44100 Hz • stereo; 53.04 MB (55 611 797 B)]    11 - Otoños de Alcohol.flac [03:23.440; FLAC • 1098 kbps • 16 bit \ 44100 Hz • stereo; 26.65 MB (27 945 963 B)]Accuracy: -m0File 01 - Prelude of War        - 100% CDDA [01:32:07]File 02 - Goddess               - 100% CDDA [03:49:73]File 03 - Spiritual             - 100% CDDA [05:37:04]File 04 - Divine War            - 100% CDDA [03:50:61]File 05 - Tenebrarum            - 100% CDDA [03:41:24]File 06 - Lust                  - 100% CDDA [02:17:18]File 07 - Nocturno              - 100% CDDA [03:11:71]File 08 - Moonlight             - 100% CDDA [03:37:26]File 09 - El Vuelo de las Almas - 100% CDDA [04:52:00]File 10 - Angel of Stone        - 100% CDDA [06:39:36]File 11 - Otoños de Alcohol     - 100% CDDA [03:23:33]————— Summary: —————These tracks looks like CDDA with probability 100%.————————————————————————————————————————————————————————————————————————ANALYZER:    auCDtect: CD records authenticity detector, version 0.8.2    Copyright (c) 2004 Oleg Berngardt. All rights reserved.    Copyright (c) 2004 Alexander Djourik. All rights reserved.Time elapsed: 5 m 01 sLog created at January 22, 2019 20:44:44=== 40C5AE84642DCA515AC15D8F63D99ABB0D998BB23B1F66171E0365181CCB117B ===

Замер динамического диапазона

foobar2000 1.3.14 / Dynamic Range Meter 1.1.1log date: 2019-01-22 20:40:06--------------------------------------------------------------------------------Analyzed: Tenebrarum / Divine War--------------------------------------------------------------------------------DR         Peak         RMS     Duration Track--------------------------------------------------------------------------------DR6       -4.52 dB   -13.01 dB      1:32 01-Prelude of WarDR8        0.00 dB    -9.30 dB      3:50 02-GoddessDR6       -0.10 dB    -7.64 dB      5:37 03-SpiritualDR5       -0.10 dB    -6.15 dB      3:51 04-Divine WarDR7        0.00 dB    -8.93 dB      3:41 05-TenebrarumDR8        0.00 dB    -9.54 dB      2:17 06-LustDR8       -0.01 dB    -9.58 dB      3:12 07-NocturnoDR7       -0.07 dB    -7.82 dB      3:37 08-MoonlightDR6        0.00 dB    -7.69 dB      4:52 09-El Vuelo de las AlmasDR5       -0.09 dB    -6.36 dB      6:39 10-Angel of StoneDR6       -0.10 dB    -6.57 dB      3:23 11-Otoños de Alcohol--------------------------------------------------------------------------------Number of tracks:  11Official DR value: DR7Samplerate:        44100 HzChannels:          2Bits per sample:   16Bitrate:           998 kbpsCodec:             FLAC================================================================================

Чтобы скачать этот контент, Вам необходимо:
1. Скачать и установить торрент-клиент [клик для Windows], (для мобильного найдите на Play Маркет).
2. Кликнуть по [Скачать]


Внимание.
Если проверка ВЫ НЕ РОБОТ - не работает, значит Вы используете устаревший браузер.
Установите актуальный браузер и повторно кликните по [Скачать]
Безопасность: торрент-клиент разрешён АВ Касперского.

[asmlocator.ru].t601245.torrent 
Торрент: Зарегистрирован [ 2019-01-24 09:30 ] · 7A6DA940642C4EEAD15A0319F5CBD5E0D2523198

Скачать .torrent

Скачать

14 KB

Статус: проверено
Скачан: 0 раз
Размер: 327 MB
terms.php
[Профиль] [ЛС]
Показать сообщения:    
Ответить на тему

Текущее время: 20-Сен 22:14

Часовой пояс: UTC ± 0



Вы не можете начинать темы
Вы не можете отвечать на сообщения
Вы не можете редактировать свои сообщения
Вы не можете удалять свои сообщения
Вы не можете голосовать в опросах
Вы не можете прикреплять файлы к сообщениям
Вы можете скачивать файлы
Верим фактам, а не вранью Путина! Факт, что Правительство ведёт Россию к истреблению.
Так как численность населения падает, даже не смотря на приток эмигрантов!
Русская нация вымирает и вырождается, смешиваясь с эмигрантами!
Факт, что военных и граждан предприятий заставляют голосовать за партию Единая Россия и Путина
ПОД СТРАХОМ УВОЛЬНЕНИЯ!
Нам не нужно Правительство, блокирующее личную жизнь, интернет, нарушающее сохранность данных.
Все эти действия финансируются за счёт народа!