(UK Bass) [WEB] Bruce - Sonder Somatic - 2018, FLAC (tracks), lossless

Ответить на тему
Статистика раздачи
Размер:  338 MB   |    Зарегистрирован:  1 год 5 месяцев   |    Скачан:  1 раз

Полного источника не было: 3 месяца 1 день

 
   
 
 
Автор Сообщение

star21 ®

Пол: Женский

Стаж: 4 года 8 месяцев

Сообщений: 551945

Откуда: Екатеринбург

Создавать темы 22-Янв-2019 05:46

[Цитировать]

Bruce • "Sonder Somatic" [HESLP004D]Bruce (birth name - Larry McCarthy): United Kingdom (Bristol, City of Bristol) ЖАНР: UK Bass
ФОРМАТ: Album • web
ИЗДАНИЕ: 2018, Hessle Audio (UK)
ИСТОЧНИКИ: REDacted [BANDcamp]
КОДЕК, БИТРЕЙТ, ТИП: [*.flac] • lossless • tracks.
TRACK LISTING01. Elo [06:24]
02. Cacao [04:30]
03. Ore [04:29]
04. Meek [06:42]
05. Torn [03:47]
06. What [05:38]
07. Baychimo [06:05]
08. Patience St Pim [03:25]
09. It'll Pass [04:54]
10. Æon [05:46]
11. Serotonin Levels Low [04:44]total length [00:56:20]

auCDtect

-----------------------DON'T MODIFY THIS FILE-----------------------PERFORMER: auCDtect Task Manager, ver. 1.6.0 RC1 build 1.6.0.1Copyright (c) 2008-2010 y-soft. All rights reservedANALYZER: auCDtect: CD records authenticity detector, version 0.8.2Copyright (c) 2004 Oleg Berngardt. All rights reserved.Copyright (c) 2004 Alexander Djourik. All rights reserved.FILE: 11. Serotonin Levels Low.flac  Size: 27046769 Hash: 16355EBBC1103AFADEDB8FD677EA59B4 Accuracy: -m0  Conclusion: CDDA 100%  Signature: 53B59CBEE3CD1361D703369A8D7E40B2007923B3FILE: 10. Æon.flac  Size: 36594380 Hash: C54E1AB7F5F69A1DFF67DF27F7A64F7F Accuracy: -m0  Conclusion: CDDA 100%  Signature: 097841B81BF6A690B134692D9B7841C586F7092BFILE: 09. It'll Pass.flac  Size: 32841554 Hash: B256E5CAEE386F78AE40D4E3AD7FF9DE Accuracy: -m0  Conclusion: CDDA 100%  Signature: 65150F03D4651EFFEC00193E4AF745862D95FA6DFILE: 08. Patience St Pim.flac  Size: 21793932 Hash: A4A56D44148D1A3413A84CBC731D94F7 Accuracy: -m0  Conclusion: CDDA 100%  Signature: 1D1A9197FD251984FCF244E4D340FA3EA09BBF35FILE: 07. Baychimo.flac  Size: 35594405 Hash: 292EB137AEAD30B913D2FD85A8388AC7 Accuracy: -m0  Conclusion: CDDA 100%  Signature: 27823A636348070FD4EBB97CA0B15EBB7ECF8026FILE: 06. What.flac  Size: 37101568 Hash: 23CABE0D0266CFE1EC45EF2965D8418D Accuracy: -m0  Conclusion: CDDA 100%  Signature: 6ED300C475437C96EC87FA7F8E218EDC797EDB27FILE: 05. Torn.flac  Size: 20604273 Hash: FBC0A5619B748024579600AF7745FF26 Accuracy: -m0  Conclusion: CDDA 99%  Signature: 0B10ADF9CD24DB0CC4FB3A7799A92FA2F3744A41FILE: 04. Meek.flac  Size: 46380111 Hash: 453AFF618368FDDF27DB0D81FE4E1C47 Accuracy: -m0  Conclusion: CDDA 100%  Signature: 983495056D7CD2C22BFCE355C233F54157C8E477FILE: 03. Ore.flac  Size: 24858430 Hash: 5562EE32D653BD7603FA6AD3BDCF4149 Accuracy: -m0  Conclusion: CDDA 100%  Signature: 2C8C857F06D656FC338E6490A5BEDCB686C38502FILE: 02. Cacao.flac  Size: 25247561 Hash: CF016FA712FFFE5B3D6C7D06B16584D4 Accuracy: -m0  Conclusion: CDDA 100%  Signature: 4F273C50A52CFF4216D1EEBCDD3CC753163E5562FILE: 01. Elo.flac  Size: 42007187 Hash: FA0C5FBEA8B15125409D50C5B5E35538 Accuracy: -m0  Conclusion: CDDA 100%  Signature: CF9F8BBDCDADFAB01FC2677C3128B6528F0F096F

dynamic range

foobar2000 1.3.9 / Dynamic Range Meter 1.1.1log date: 2019-01-13 06:52:24--------------------------------------------------------------------------------Analyzed: Bruce / Sonder Somatic--------------------------------------------------------------------------------DR         Peak         RMS     Duration Track--------------------------------------------------------------------------------DR6       -0.30 dB   -10.00 dB      6:24 01-EloDR6       -0.30 dB    -6.59 dB      4:29 02-CacaoDR6       -0.30 dB    -9.25 dB      4:29 03-OreDR7       -0.30 dB    -9.21 dB      6:42 04-MeekDR7       -0.30 dB   -12.55 dB      3:46 05-TornDR6       -0.30 dB    -6.95 dB      5:38 06-WhatDR6       -0.30 dB    -9.28 dB      6:05 07-BaychimoDR8       -0.30 dB   -10.67 dB      3:24 08-Patience St PimDR7       -0.30 dB   -10.44 dB      4:54 09-It'll PassDR6       -0.30 dB    -9.15 dB      5:46 10-ÆonDR8       -0.30 dB   -11.02 dB      4:44 11-Serotonin Levels Low--------------------------------------------------------------------------------Number of tracks:  11Official DR value: DR7Samplerate:        44100 HzChannels:          2Bits per sample:   16Bitrate:           761 kbpsCodec:             FLAC================================================================================

Чтобы скачать этот контент, Вам необходимо:
1. Скачать и установить торрент-клиент [клик для Windows], (для мобильного найдите на Play Маркет).
2. Кликнуть по [Скачать]


Внимание.
Если проверка ВЫ НЕ РОБОТ - не работает, значит Вы используете устаревший браузер.
Установите актуальный браузер и повторно кликните по [Скачать]

Запрещён Яндекс браузер. Загрузка файлов им является ошибочной.
Безопасность: торрент-клиент разрешён АВ Касперского.

[mail.asmlocator.ru].t599211.torrent 
Торрент: Зарегистрирован [ 2019-01-22 05:45 ] · 7C41B1406CD13F7CDF06E5C4D6F9E728633F470D

Скачать .torrent

Скачать

14 KB

Статус: проверено
Скачан: 1 раз
Размер: 338 MB
terms.php
[Профиль] [ЛС]
Показать сообщения:    
Ответить на тему

Текущее время: 12-Июл 18:05

Часовой пояс: UTC ± 0



Вы не можете начинать темы
Вы не можете отвечать на сообщения
Вы не можете редактировать свои сообщения
Вы не можете удалять свои сообщения
Вы не можете голосовать в опросах
Вы не можете прикреплять файлы к сообщениям
Вы можете скачивать файлы
Верим фактам, а не вранью Путина! Факт, что Правительство ведёт Россию к истреблению.
Так как численность населения падает, даже не смотря на приток эмигрантов!
Русская нация вымирает и вырождается, смешиваясь с эмигрантами!
Факт, что военных и граждан предприятий заставляют голосовать за партию Единая Россия и Путина
ПОД СТРАХОМ УВОЛЬНЕНИЯ!
Нам не нужно Правительство, блокирующее личную жизнь, интернет, нарушающее сохранность данных.
Все эти действия финансируются за счёт народа!