[TR24][SM][OF][FM] Робин Гуд: Начало / Robin Hood (by Joseph Trapanese) - 2018 (Score)

Ответить на тему
Статистика раздачи
Размер:  704 MB   |    Зарегистрирован:  10 месяцев 27 дней   |    Скачан:  1 раз

Полного источника не было: 50 минут

 
   
 
 
Автор Сообщение

star21 ®

Пол: Женский

Стаж: 3 года 11 месяцев

Сообщений: 551988

Откуда: Екатеринбург

Создавать темы 17-Ноя-2018 05:15

[Цитировать]

Joseph Trapanese / Робин Гуд: Начало / Robin Hood Формат записи/Источник записи: [TR24][SM][OF][FM]
Наличие водяных знаков: Нет
Год издания/переиздания диска: 2018
Жанр: Score
Продолжительность: 01:18:09
Наличие сканов в содержимом раздачи: Только обложка альбома
Источник (релизер): qobuz
Контейнер: FLAC (*.flac)
Тип рипа: tracks
Разрядность: 24/44
Количество каналов: 2.0
Треклист:
01. Loxley Manor (5:00)
02. Syria (7:06)
03. Marion Looks for Rob (1:43)
04. He's My Son (3:13)
05. Return to England (3:10)
06. Rob Inspired (3:55)
07. Nottingham (4:26)
08. Sheriff Intro (0:44)
09. Follow the Money (1:01)
10. Becoming a Thief (3:19)
11. First Heists (1:54)
12. Becoming a Hero (3:46)
13. Money to the People (2:27)
14. Rob Goes Big (2:54)
15. The Treasury (2:31)
16. Becoming the Hood (1:30)
17. Attacking the Slags (4:18)
18. Horse Chase (4:44)
19. Sacrifice (1:09)
20. Rob Inspires the People (4:06)
21. Here's the Plan (2:31)
22. Devil's Work Undone (4:25)
23. City Siege (2:23)
24. Escape to Sherwood (3:39)
25. Viktor (Bonus Track) (2:20)

foo_dr

foobar2000 1.3.3 (cdpos.biz) / Замер динамического диапазона (DR) 1.1.1Дата отчёта:  2018-11-17 08:56:43--------------------------------------------------------------------------------Анализ:   Bonnie Brae / Robin Hood (Original Motion Picture Soundtrack) (1)          Joseph Trapanese / Robin Hood (Original Motion Picture Soundtrack) (2-25)--------------------------------------------------------------------------------DR         Пики         RMS           Продолжительность трека--------------------------------------------------------------------------------DR11      -1.01 дБ   -13.05 дБ      2:19 25-Viktor (Bonus Track)DR11      -1.01 дБ   -18.28 дБ      4:59 1-Loxley ManorDR9       -1.01 дБ   -14.50 дБ      7:06 2-SyriaDR12      -8.63 дБ   -26.91 дБ      1:43 3-Marion Looks for RobDR10      -1.01 дБ   -16.82 дБ      3:13 4-He's My SonDR11      -1.01 дБ   -17.36 дБ      3:10 5-Return to EnglandDR13      -1.01 дБ   -19.90 дБ      3:55 6-Rob InspiredDR10      -1.01 дБ   -15.92 дБ      4:26 7-NottinghamDR8       -1.01 дБ   -14.19 дБ      0:44 8-Sheriff IntroDR12      -1.01 дБ   -19.85 дБ      1:01 9-Follow the MoneyDR9       -1.01 дБ   -14.58 дБ      3:19 10-Becoming a ThiefDR9       -1.01 дБ   -15.30 дБ      1:54 11-First HeistsDR10      -1.01 дБ   -15.32 дБ      3:46 12-Becoming a HeroDR9       -1.01 дБ   -13.73 дБ      2:26 13-Money to the PeopleDR10      -1.01 дБ   -16.13 дБ      2:54 14-Rob Goes BigDR9       -1.02 дБ   -13.64 дБ      2:31 15-The TreasuryDR8       -1.01 дБ   -12.31 дБ      1:30 16-Becoming the HoodDR11      -1.01 дБ   -17.08 дБ      4:18 17-Attacking the SlagsDR8       -1.57 дБ   -12.54 дБ      4:44 18-Horse ChaseDR10      -5.38 дБ   -20.43 дБ      1:09 19-SacrificeDR9       -1.01 дБ   -15.39 дБ      4:06 20-Rob Inspires the PeopleDR11      -1.01 дБ   -17.64 дБ      2:31 21-Here's the PlanDR10      -1.01 дБ   -15.24 дБ      4:25 22-Devil's Work UndoneDR9       -1.01 дБ   -16.33 дБ      2:23 23-City SiegeDR11      -1.01 дБ   -17.98 дБ      3:39 24-Escape to Sherwood--------------------------------------------------------------------------------Количество треков: 25Реальные значения DR: DR10Частота:  44100 ГцКаналов:  2Разрядность:   24Битрейт:  1149 кбит/сКодек:   FLAC================================================================================

Чтобы скачать этот контент, Вам необходимо:
1. Скачать и установить торрент-клиент [клик для Windows], (для мобильного найдите на Play Маркет).
2. Кликнуть по [Скачать]


Внимание.
Если проверка ВЫ НЕ РОБОТ - не работает, значит Вы используете устаревший браузер.
Установите актуальный браузер и повторно кликните по [Скачать]
Безопасность: торрент-клиент разрешён АВ Касперского.

[asmlocator.ru].t587969.torrent 
Торрент: Зарегистрирован [ 2018-11-17 05:15 ] · 4C1037B09FB2A5EA89C223D8EA5638AE54146F5C

Скачать .torrent

Скачать

16 KB

Статус: проверено
Скачан: 1 раз
Размер: 704 MB
terms.php
[Профиль] [ЛС]
Показать сообщения:    
Ответить на тему

Текущее время: 14-Окт 07:45

Часовой пояс: UTC ± 0



Вы не можете начинать темы
Вы не можете отвечать на сообщения
Вы не можете редактировать свои сообщения
Вы не можете удалять свои сообщения
Вы не можете голосовать в опросах
Вы не можете прикреплять файлы к сообщениям
Вы можете скачивать файлы
Верим фактам, а не вранью Путина! Факт, что Правительство ведёт Россию к истреблению.
Так как численность населения падает, даже не смотря на приток эмигрантов!
Русская нация вымирает и вырождается, смешиваясь с эмигрантами!
Факт, что военных и граждан предприятий заставляют голосовать за партию Единая Россия и Путина
ПОД СТРАХОМ УВОЛЬНЕНИЯ!
Нам не нужно Правительство, блокирующее личную жизнь, интернет, нарушающее сохранность данных.
Все эти действия финансируются за счёт народа!