Taylor Swift - I Did Something Bad - The American Music Awards 2018 [2018, Electropop, HDTV, 720p]

Ответить на тему
Статистика раздачи
Размер:  5,18 GB   |    Зарегистрирован:  1 год 1 месяц   |    Скачан:  0 раз

Полного источника не было: Никогда

 
   
 
 
Автор Сообщение

star21 ®

Пол: Женский

Стаж: 4 года 1 месяц

Сообщений: 551946

Откуда: Екатеринбург

Создавать темы 14-Окт-2018 12:30

[Цитировать]

Taylor Swift - I Did Something Bad - The American Music Awards 2018 Жанр: Electropop
Продолжительность: 00:07:22 + 00:03:00 + 00:03:10 + 00:03:40
Год выпуска: 2018Описание: Тейлор Свифт открыла церемонию песней "I Did Something Bad".
Тейлор была номинирована в четырех категориях, и во всех победила: "Лучший поп/рок альбом", "Тур года", "Артист года", "Лучшая исполнительница в жанре поп/рок".
Теперь она самая награждаемая артистка за всю историю премии "American Music Awards".Качество: HDTV (FEED)
Разрешение видео/развертка: 720p
Контейнер: TS
Видео кодек: MPEG2
Аудио кодек: DTS
Видео: 1280x720 (1.78:1), 38,4 Mbit, 59,940 fps
Аудио: DTS-HD MA, Lossless / 1509 Kbps (Core), 6 ch, 48 KHz
Аудио 2: AC3, 384 Kbps, 2 ch, 48 KHzДоп. информация: Источник - The 2018 American Music Awards BACKHAUL 720p 38 Mbps DTS-HD MA 5.1 MPEG2-ALANiS
Нарезка моя.

Отчёт MediaInfo / Taylor Swift - I Did Something Bad

ОбщееИдентификатор                            : 1 (0x1)Полное имя                               : K:\VIDEO\Video-Clips\Taylor Swift - The American Music Awards 2018\1.Taylor Swift - I Did Something Bad - The American Music Awards 2018 BACKHAUL 720p 38 Mbps DTS-HD MA 5.1 MPEG2-ALANiS.tsФормат                                   : MPEG-TSРазмер файла                             : 2,22 ГбайтПродолжительность                        : 7 м. 22 с.Режим общего битрейта                    : ПеременныйОбщий поток                              : 43,1 Мбит/секМаксимальный общий битрейт               : 35,5 Мбит/секВидеоИдентификатор                            : 4113 (0x1011)Идентификатор меню                       : 1 (0x1)Формат                                   : MPEG VideoВерсия формата                           : Version 2Профиль формата                          : Main@HighНастройки формата                        : BVOPПараметр BVOP формата                    : ДаПараметр матрицы формата                 : По умолчаниюПараметр GOP формата                     : M=4, N=64Идентификатор кодека                     : 2Продолжительность                        : 7 м. 22 с.Вид битрейта                             : ПеременныйМаксимальный битрейт                     : 38,4 Мбит/секШирина                                   : 1280 пикселейВысота                                   : 720 пикселейСоотношение сторон                       : 16:9Частота кадров                           : 59,940 (60000/1001) кадров/секЦветовое пространство                    : YUVСубдискретизация насыщенности            : 4:2:0Битовая глубина                          : 8 битТип развёртки                            : ПрогрессивнаяМетод сжатия                             : С потерямиВременной код первого кадра              : 00:00:00;00Оригинал временного кода                 : Group of pictures headerАудио #1Идентификатор                            : 4352 (0x1100)Идентификатор меню                       : 1 (0x1)Формат                                   : DTS XLLФормат/Информация                        : Digital Theater SystemsКоммерческое название                    : DTS-HD Master AudioРежим смешивания                         : Stream extensionИдентификатор кодека                     : 134Продолжительность                        : 7 м. 22 с.Вид битрейта                             : ПеременныйКаналы                                   : 6 каналовChannel layout                           : C L R Ls Rs LFEЧастота                                  : 48,0 КГцЧастота кадров                           : 93,750 кадра/сек (512 SPF)Битовая глубина                          : 24 битМетод сжатия                             : Без потерьЗадержка видео                           : 12 мс.Язык                                     : EnglishАудио #2Идентификатор                            : 4353 (0x1101)Идентификатор меню                       : 1 (0x1)Формат                                   : MPEG AudioВерсия формата                           : Version 1Профиль формата                          : Layer 2Настройки формата                        : Dual monoИдентификатор кодека                     : 4Продолжительность                        : 7 м. 22 с.Вид битрейта                             : ПостоянныйБитрейт                                  : 384 Кбит/секКаналы                                   : 2 каналаЧастота                                  : 48,0 КГцЧастота кадров                           : 41,667 кадра/сек (1152 SPF)Метод сжатия                             : С потерямиЗадержка видео                           : 12 мс.Размер потока                            : 20,3 Мбайт (1%)Язык                                     : English

Отчёт MediaInfo / Taylor Swift - Favorite Tour of the Year

Общее
Идентификатор : 1 (0x1)
Полное имя : K:\VIDEO\Video-Clips\Taylor Swift - The American Music Awards 2018\2.Taylor Swift - Favorite Tour of the Year - The American Music Awards 2018 BACKHAUL 720p 38 Mbps DTS-HD MA 5.1 MPEG2-ALANiS.ts
Формат : MPEG-TS
Размер файла : 925 Мбайт
Продолжительность : 3 м. 0 с.
Режим общего битрейта : Переменный
Общий поток : 42,9 Мбит/сек
Максимальный общий битрейт : 35,5 Мбит/секВидео
Идентификатор : 4113 (0x1011)
Идентификатор меню : 1 (0x1)
Формат : MPEG Video
Версия формата : Version 2
Профиль формата : Main@High
Настройки формата : BVOP
Параметр BVOP формата : Да
Параметр матрицы формата : По умолчанию
Параметр GOP формата : M=4, N=64
Идентификатор кодека : 2
Продолжительность : 3 м. 0 с.
Вид битрейта : Переменный
Максимальный битрейт : 38,4 Мбит/сек
Ширина : 1280 пикселей
Высота : 720 пикселей
Соотношение сторон : 16:9
Частота кадров : 59,940 (60000/1001) кадров/сек
Цветовое пространство : YUV
Субдискретизация насыщенности : 4:2:0
Битовая глубина : 8 бит
Тип развёртки : Прогрессивная
Метод сжатия : С потерями
Временной код первого кадра : 00:27:07;13
Оригинал временного кода : Group of pictures headerАудио #1
Идентификатор : 4352 (0x1100)
Идентификатор меню : 1 (0x1)
Формат : DTS XLL
Формат/Информация : Digital Theater Systems
Коммерческое название : DTS-HD Master Audio
Режим смешивания : Stream extension
Идентификатор кодека : 134
Продолжительность : 3 м. 0 с.
Вид битрейта : Переменный
Каналы : 6 каналов
Channel layout : C L R Ls Rs LFE
Частота : 48,0 КГц
Частота кадров : 93,750 кадра/сек (512 SPF)
Битовая глубина : 24 бит
Метод сжатия : Без потерь
Задержка видео : -16 мс.
Язык : EnglishАудио #2
Идентификатор : 4353 (0x1101)
Идентификатор меню : 1 (0x1)
Формат : MPEG Audio
Версия формата : Version 1
Профиль формата : Layer 2
Настройки формата : Dual mono
Идентификатор кодека : 4
Продолжительность : 3 м. 0 с.
Вид битрейта : Постоянный
Битрейт : 384 Кбит/сек
Каналы : 2 канала
Частота : 48,0 КГц
Частота кадров : 41,667 кадра/сек (1152 SPF)
Метод сжатия : С потерями
Задержка видео : -5 мс.
Размер потока : 8,28 Мбайт (1%)
Язык : English

Отчёт MediaInfo / Taylor Swift - Favorite Pop/Rock Album

Общее
Идентификатор : 1 (0x1)
Полное имя : K:\VIDEO\Video-Clips\Taylor Swift - The American Music Awards 2018\3.Taylor Swift - Favorite Pop-Rock Album - The American Music Awards 2018 BACKHAUL 720p 38 Mbps DTS-HD MA 5.1 MPEG2-ALANiS.ts
Формат : MPEG-TS
Размер файла : 975 Мбайт
Продолжительность : 3 м. 10 с.
Режим общего битрейта : Переменный
Общий поток : 42,8 Мбит/сек
Максимальный общий битрейт : 35,5 Мбит/секВидео
Идентификатор : 4113 (0x1011)
Идентификатор меню : 1 (0x1)
Формат : MPEG Video
Версия формата : Version 2
Профиль формата : Main@High
Настройки формата : BVOP
Параметр BVOP формата : Да
Параметр матрицы формата : По умолчанию
Параметр GOP формата : M=4, N=64
Идентификатор кодека : 2
Продолжительность : 3 м. 10 с.
Вид битрейта : Переменный
Максимальный битрейт : 38,4 Мбит/сек
Ширина : 1280 пикселей
Высота : 720 пикселей
Соотношение сторон : 16:9
Частота кадров : 59,940 (60000/1001) кадров/сек
Цветовое пространство : YUV
Субдискретизация насыщенности : 4:2:0
Битовая глубина : 8 бит
Тип развёртки : Прогрессивная
Метод сжатия : С потерями
Временной код первого кадра : 01:34:01;53
Оригинал временного кода : Group of pictures headerАудио #1
Идентификатор : 4352 (0x1100)
Идентификатор меню : 1 (0x1)
Формат : DTS XLL
Формат/Информация : Digital Theater Systems
Коммерческое название : DTS-HD Master Audio
Режим смешивания : Stream extension
Идентификатор кодека : 134
Продолжительность : 3 м. 10 с.
Вид битрейта : Переменный
Каналы : 6 каналов
Channel layout : C L R Ls Rs LFE
Частота : 48,0 КГц
Частота кадров : 93,750 кадра/сек (512 SPF)
Битовая глубина : 24 бит
Метод сжатия : Без потерь
Задержка видео : -31 мс.
Язык : EnglishАудио #2
Идентификатор : 4353 (0x1101)
Идентификатор меню : 1 (0x1)
Формат : MPEG Audio
Версия формата : Version 1
Профиль формата : Layer 2
Настройки формата : Dual mono
Идентификатор кодека : 4
Продолжительность : 3 м. 10 с.
Вид битрейта : Постоянный
Битрейт : 384 Кбит/сек
Каналы : 2 канала
Частота : 48,0 КГц
Частота кадров : 41,667 кадра/сек (1152 SPF)
Метод сжатия : С потерями
Задержка видео : -15 мс.
Размер потока : 8,74 Мбайт (1%)
Язык : English

Отчёт MediaInfo / Taylor Swift - Artist of the Year

Общее
Идентификатор : 1 (0x1)
Полное имя : K:\VIDEO\Video-Clips\Taylor Swift - The American Music Awards 2018\4.Taylor Swift - Artist of the Year - The American Music Awards 2018 BACKHAUL 720p 38 Mbps DTS-HD MA 5.1 MPEG2-ALANiS.ts
Формат : MPEG-TS
Размер файла : 1,10 Гбайт
Продолжительность : 3 м. 40 с.
Режим общего битрейта : Переменный
Общий поток : 42,8 Мбит/сек
Максимальный общий битрейт : 35,5 Мбит/секВидео
Идентификатор : 4113 (0x1011)
Идентификатор меню : 1 (0x1)
Формат : MPEG Video
Версия формата : Version 2
Профиль формата : Main@High
Настройки формата : BVOP
Параметр BVOP формата : Да
Параметр матрицы формата : По умолчанию
Параметр GOP формата : M=4, N=64
Идентификатор кодека : 2
Продолжительность : 3 м. 40 с.
Вид битрейта : Переменный
Максимальный битрейт : 38,4 Мбит/сек
Ширина : 1280 пикселей
Высота : 720 пикселей
Соотношение сторон : 16:9
Частота кадров : 59,940 (60000/1001) кадров/сек
Цветовое пространство : YUV
Субдискретизация насыщенности : 4:2:0
Битовая глубина : 8 бит
Тип развёртки : Прогрессивная
Метод сжатия : С потерями
Временной код первого кадра : 01:59:40;29
Оригинал временного кода : Group of pictures headerАудио #1
Идентификатор : 4352 (0x1100)
Идентификатор меню : 1 (0x1)
Формат : DTS XLL
Формат/Информация : Digital Theater Systems
Коммерческое название : DTS-HD Master Audio
Режим смешивания : Stream extension
Идентификатор кодека : 134
Продолжительность : 3 м. 40 с.
Вид битрейта : Переменный
Каналы : 6 каналов
Channel layout : C L R Ls Rs LFE
Частота : 48,0 КГц
Частота кадров : 93,750 кадра/сек (512 SPF)
Битовая глубина : 24 бит
Метод сжатия : Без потерь
Задержка видео : -38 мс.
Язык : EnglishАудио #2
Идентификатор : 4353 (0x1101)
Идентификатор меню : 1 (0x1)
Формат : MPEG Audio
Версия формата : Version 1
Профиль формата : Layer 2
Настройки формата : Dual mono
Идентификатор кодека : 4
Продолжительность : 3 м. 40 с.
Вид битрейта : Постоянный
Битрейт : 384 Кбит/сек
Каналы : 2 канала
Частота : 48,0 КГц
Частота кадров : 41,667 кадра/сек (1152 SPF)
Метод сжатия : С потерями
Задержка видео : -19 мс.
Размер потока : 10,1 Мбайт (1%)
Язык : English

Чтобы скачать этот контент, Вам необходимо:
1. Скачать и установить торрент-клиент [клик для Windows], (для мобильного найдите на Play Маркет).
2. Кликнуть по [Скачать]


Внимание.
Если проверка ВЫ НЕ РОБОТ - не работает, значит Вы используете устаревший браузер.
Установите актуальный браузер и повторно кликните по [Скачать]
Безопасность: торрент-клиент разрешён АВ Касперского.

[mail.asmlocator.ru].t577116.torrent 
Торрент: Зарегистрирован [ 2018-10-14 12:30 ] · E044EC53A6543FA69EF2159611207B68100212CD

Скачать .torrent

Скачать

27 KB

Статус: проверено
Скачан: 0 раз
Размер: 5,18 GB
terms.php
[Профиль] [ЛС]
Показать сообщения:    
Ответить на тему

Текущее время: 10-Дек 13:29

Часовой пояс: UTC ± 0



Вы не можете начинать темы
Вы не можете отвечать на сообщения
Вы не можете редактировать свои сообщения
Вы не можете удалять свои сообщения
Вы не можете голосовать в опросах
Вы не можете прикреплять файлы к сообщениям
Вы можете скачивать файлы
Верим фактам, а не вранью Путина! Факт, что Правительство ведёт Россию к истреблению.
Так как численность населения падает, даже не смотря на приток эмигрантов!
Русская нация вымирает и вырождается, смешиваясь с эмигрантами!
Факт, что военных и граждан предприятий заставляют голосовать за партию Единая Россия и Путина
ПОД СТРАХОМ УВОЛЬНЕНИЯ!
Нам не нужно Правительство, блокирующее личную жизнь, интернет, нарушающее сохранность данных.
Все эти действия финансируются за счёт народа!