Taylor Swift - New Romantics [2016, Pop, New wave, Synthpop, MasterRip, 1080p]

Ответить на тему
Статистика раздачи
Размер:  506 MB   |    Зарегистрирован:  1 год 2 месяца   |    Скачан:  0 раз

Полного источника не было: 1 год 2 месяца

 
   
 
 
Автор Сообщение

star21 ®

Пол: Женский

Стаж: 4 года 1 месяц

Сообщений: 551946

Откуда: Екатеринбург

Создавать темы 23-Сен-2018 08:40

[Цитировать]

Taylor Swift - New Romantics Жанр: Pop, New wave, Synthpop
Продолжительность: 00:04:23
Год выпуска: 2016Описание: The music video for "New Romantics" was directed by Jonas Åkerlund and was officially released on April 6 as an Apple Music exclusive, and was made available on Swift's Vevo and YouTube channels on April 13, 2016. The video contains various clips of performances and behind-the-scenes footage taken from The 1989 World Tour. As of August 2018, the video has over 80 million views on YouTube and is the least viewed video from Swift's album 1989.Качество: MasterRip
Разрешение видео/развертка: 1080p
Контейнер: MKV
Видео кодек: H.264
Аудио кодек: AAC
Видео: 1920x1080 (16:9), 16 Mbit, 29,970 fps
Аудио: AAC, 254 Kbps, 2 ch, 48 KHz (itunes)

Отчёт MediaInfo

ОбщееУникальный идентификатор                 : 218302479672302379725735065639267932796 (0xA43B873B9EDBF464C1BB8BF63E3D1A7C)Полное имя                               : K:\VIDEO\Video-Clips\MASTER\Taylor Swift - New Romantics (MasterRip 1080p) 2016 AAC-x264.mkvФормат                                   : MatroskaВерсия формата                           : Version 4Размер файла                             : 506 МбайтПродолжительность                        : 4 м. 23 с.Общий поток                              : 16,1 Мбит/секДата кодирования                         : UTC 2018-09-22 13:58:27Программа кодирования                    : mkvmerge v26.0.0 ('In The Game') 64-bitБиблиотека кодирования                   : libebml v1.3.6 + libmatroska v1.4.9ВидеоИдентификатор                            : 1Формат                                   : AVCФормат/Информация                        : Advanced Video CodecПрофиль формата                          : Baseline@L1.3Настройки формата                        : 2 Ref FramesПараметр CABAC формата                   : НетПараметр RefFrames формата               : 2 кадраИдентификатор кодека                     : V_MPEG4/ISO/AVCПродолжительность                        : 4 м. 21 с.Битрейт                                  : 16,0 Мбит/секШирина                                   : 1920 пикселейВысота                                   : 1080 пикселейСоотношение сторон                       : 16:9Режим частоты кадров                     : ПостоянныйЧастота кадров                           : 29,970 (30000/1001) кадров/секЦветовое пространство                    : YUVСубдискретизация насыщенности            : 4:2:0Битовая глубина                          : 8 битТип развёртки                            : ПрогрессивнаяБит/(Пиксели*Кадры)                      : 0.257Размер потока                            : 498 Мбайт (98%)Язык                                     : EnglishDefault                                  : ДаForced                                   : НетАудиоИдентификатор                            : 2Формат                                   : AAC LCФормат/Информация                        : Advanced Audio Codec Low ComplexityИдентификатор кодека                     : A_AAC-2Продолжительность                        : 4 м. 23 с.Битрейт                                  : 254 Кбит/секКаналы                                   : 2 каналаChannel layout                           : L RЧастота                                  : 48,0 КГцЧастота кадров                           : 46,875 кадров/сек (1024 SPF)Метод сжатия                             : С потерямиРазмер потока                            : 7,95 Мбайт (2%)Язык                                     : EnglishDefault                                  : ДаForced                                   : Нет

Чтобы скачать этот контент, Вам необходимо:
1. Скачать и установить торрент-клиент [клик для Windows], (для мобильного найдите на Play Маркет).
2. Кликнуть по [Скачать]


Внимание.
Если проверка ВЫ НЕ РОБОТ - не работает, значит Вы используете устаревший браузер.
Установите актуальный браузер и повторно кликните по [Скачать]
Безопасность: торрент-клиент разрешён АВ Касперского.

[mail.asmlocator.ru].t570033.torrent 
Торрент: Зарегистрирован [ 2018-09-23 08:40 ] · AF428333810FE502A533E21F4A7E039A84C480F7

Скачать .torrent

Скачать

20 KB

Статус: проверено
Скачан: 0 раз
Размер: 506 MB
terms.php
[Профиль] [ЛС]
Показать сообщения:    
Ответить на тему

Текущее время: 10-Дек 13:32

Часовой пояс: UTC ± 0



Вы не можете начинать темы
Вы не можете отвечать на сообщения
Вы не можете редактировать свои сообщения
Вы не можете удалять свои сообщения
Вы не можете голосовать в опросах
Вы не можете прикреплять файлы к сообщениям
Вы можете скачивать файлы
Верим фактам, а не вранью Путина! Факт, что Правительство ведёт Россию к истреблению.
Так как численность населения падает, даже не смотря на приток эмигрантов!
Русская нация вымирает и вырождается, смешиваясь с эмигрантами!
Факт, что военных и граждан предприятий заставляют голосовать за партию Единая Россия и Путина
ПОД СТРАХОМ УВОЛЬНЕНИЯ!
Нам не нужно Правительство, блокирующее личную жизнь, интернет, нарушающее сохранность данных.
Все эти действия финансируются за счёт народа!