Taylor Swift - Delicate [2018, Electropop, Web-DLRip 1080p, Master 1080p]

Ответить на тему
Статистика раздачи
Размер:  6,36 GB   |    Зарегистрирован:  1 год 2 месяца   |    Скачан:  0 раз

Полного источника не было: Никогда

 
   
 
 
Автор Сообщение

star21 ®

Пол: Женский

Стаж: 4 года 1 месяц

Сообщений: 551946

Откуда: Екатеринбург

Создавать темы 11-Сен-2018 16:20

[Цитировать]

Taylor Swift - Delicate Жанр: ElectropopПродолжительность: 03:55 и 03:55Год выпуска: 2018

Spotify Vertical Version

Качество: Web-DLRip
Разрешение видео/развертка: 1080p
Контейнер: MKVВидео кодек: H.264
Аудио кодек: PCMВидео: AVC 1920x1080 13.6 Mbps 16/9 29.97fps
Аудио: PCM 1411kbps 2 channels 44,1 KHz

Отчёт MediaInfo

Spotify Vertical VersionFormat                         : MatroskaFormat version                 : Version 4 / Version 2File size                      : 381 MiBDuration                       : 3mn 54sOverall bit rate               : 13.6 MbpsEncoded date                   : UTC 2018-03-30 19:12:50Writing application            : mkvmerge v15.0.0 ('Duel with the Devil') 64-bitWriting library                : libebml v1.3.5 + libmatroska v1.4.5DURATION                       : 00:03:54.534000000NUMBER_OF_FRAMES               : 7029NUMBER_OF_BYTES                : 277771869_STATISTICS_WRITING_APP        : mkvmerge v15.0.0 ('Duel with the Devil') 64-bit_STATISTICS_WRITING_DATE_UTC   : 2018-03-30 19:12:50_STATISTICS_TAGS               : BPS DURATION NUMBER_OF_FRAMES NUMBER_OF_BYTESVideoID                             : 1Format                         : AVCFormat/Info                    : Advanced Video CodecFormat profile                 : High@L4.2Format settings, CABAC         : YesFormat settings, ReFrames      : 4 framesCodec ID                       : V_MPEG4/ISO/AVCDuration                       : 3mn 54sWidth                          : 1 920 pixelsHeight                         : 1 080 pixelsDisplay aspect ratio           : 16:9Frame rate mode                : ConstantFrame rate                     : 29.970 fpsColor space                    : YUVChroma subsampling             : 4:2:0Bit depth                      : 8 bitsScan type                      : ProgressiveWriting library                : x264 core 155 r2901 7d0ff22Encoding settings              : cabac=1 / ref=3 / deblock=1:0:0 / analyse=0x3:0x113 / me=hex / subme=7 / psy=1 / psy_rd=1.00:0.00 / mixed_ref=1 / me_range=16 / chroma_me=1 / trellis=1 / 8x8dct=1 / cqm=0 / deadzone=21,11 / fast_pskip=1 / chroma_qp_offset=-2 / threads=6 / lookahead_threads=1 / sliced_threads=0 / nr=0 / decimate=1 / interlaced=0 / bluray_compat=0 / constrained_intra=0 / bframes=3 / b_pyramid=2 / b_adapt=1 / b_bias=0 / direct=1 / weightb=1 / open_gop=0 / weightp=2 / keyint=300 / keyint_min=29 / scenecut=40 / intra_refresh=0 / rc_lookahead=40 / rc=crf / mbtree=1 / crf=19.0 / qcomp=0.60 / qpmin=0 / qpmax=69 / qpstep=4 / vbv_maxrate=62500 / vbv_bufsize=78125 / crf_max=0.0 / nal_hrd=none / filler=0 / ip_ratio=1.40 / aq=1:1.00Default                        : YesForced                         : NoAudio #1ID                             : 2Format                         : PCMCodec ID                       : A_PCM/INT/LITDuration                       : 3mn 54sChannel(s)                     : 2 channelsSampling rate                  : 44.1 KHzBit depth                      : 16 bitsDefault                        : NoForced                         : NoDURATION                       : 00:03:54.643000000NUMBER_OF_FRAMES               : 10106NUMBER_OF_BYTES                : 41391020_STATISTICS_WRITING_APP        : mkvmerge v15.0.0 ('Duel with the Devil') 64-bit_STATISTICS_WRITING_DATE_UTC   : 2018-03-30 19:12:50_STATISTICS_TAGS               : BPS DURATION NUMBER_OF_FRAMES NUMBER_OF_BYTESAudio #2ID                             : 3Format                         : ALACCodec ID                       : A_ALACCodec ID/Info                  : Apple Lossless Audio CodecDuration                       : 3mn 54sChannel(s)                     : 2 channelsSampling rate                  : 96.0 KHzDefault                        : NoForced                         : NoDURATION                       : 00:03:54.406000000NUMBER_OF_FRAMES               : 5495NUMBER_OF_BYTES                : 80769978_STATISTICS_WRITING_APP        : mkvmerge v15.0.0 ('Duel with the Devil') 64-bit_STATISTICS_WRITING_DATE_UTC   : 2018-03-30 19:12:50_STATISTICS_TAGS               : BPS DURATION NUMBER_OF_FRAMES NUMBER_OF_BYTE

Скриншоты

Spotify Vertical Version

Master ProRes 1080p

Качество: Master
Разрешение видео/развертка: 1080p
Контейнер: MOVВидео кодек: ProRes
Аудио кодек: PCMВидео: ProRes 1920x1080 16:9 217 Mbps 23.976 fps
Аудио: PCM 1536kbps 2 channels 48 KHz

Отчёт MediaInfo

Master ProRes 1080pFormat                         : MPEG-4Format profile                 : QuickTimeCodec ID                       : qtFile size                      : 5.99 GiBDuration                       : 3mn 55sOverall bit rate mode          : VariableOverall bit rate               : 219 MbpsWriting application            : Lavf55.19.104VideoID                             : 1Format                         : ProResFormat version                 : Version 0Format profile                 : HighCodec ID                       : apchDuration                       : 3mn 55sBit rate mode                  : VariableBit rate                       : 217 MbpsWidth                          : 1 920 pixelsHeight                         : 1 080 pixelsDisplay aspect ratio           : 16:9Frame rate mode                : ConstantFrame rate                     : 23.976 fpsColor space                    : YUVChroma subsampling             : 4:2:2Scan type                      : ProgressiveBits/(Pixel*Frame)             : 4.372Stream size                    : 5.95 GiB (99%)Writing library                : fmpgLanguage                       : EnglishMatrix coefficients            : BT.601AudioID                             : 2Format                         : PCMFormat settings, Endianness    : LittleFormat settings, Sign          : SignedCodec ID                       : sowtDuration                       : 3mn 54sBit rate mode                  : ConstantBit rate                       : 1 536 KbpsChannel(s)                     : 2 channelsChannel positions              : Front: L RSampling rate                  : 48.0 KHzBit depth                      : 16 bitsStream size                    : 43.0 MiB (1%)Language                       : English

Скриншоты

Master ProRes 1080p

Чтобы скачать этот контент, Вам необходимо:
1. Скачать и установить торрент-клиент [клик для Windows], (для мобильного найдите на Play Маркет).
2. Кликнуть по [Скачать]


Внимание.
Если проверка ВЫ НЕ РОБОТ - не работает, значит Вы используете устаревший браузер.
Установите актуальный браузер и повторно кликните по [Скачать]
Безопасность: торрент-клиент разрешён АВ Касперского.

[mail.asmlocator.ru].t566783.torrent 
Торрент: Зарегистрирован [ 2018-09-11 16:20 ] · 8F322E23D65934259DA26F544F16CEDE3CF9FCCD

Скачать .torrent

Скачать

16 KB

Статус: проверено
Скачан: 0 раз
Размер: 6,36 GB
terms.php
[Профиль] [ЛС]
Показать сообщения:    
Ответить на тему

Текущее время: 10-Дек 13:41

Часовой пояс: UTC ± 0



Вы не можете начинать темы
Вы не можете отвечать на сообщения
Вы не можете редактировать свои сообщения
Вы не можете удалять свои сообщения
Вы не можете голосовать в опросах
Вы не можете прикреплять файлы к сообщениям
Вы можете скачивать файлы
Верим фактам, а не вранью Путина! Факт, что Правительство ведёт Россию к истреблению.
Так как численность населения падает, даже не смотря на приток эмигрантов!
Русская нация вымирает и вырождается, смешиваясь с эмигрантами!
Факт, что военных и граждан предприятий заставляют голосовать за партию Единая Россия и Путина
ПОД СТРАХОМ УВОЛЬНЕНИЯ!
Нам не нужно Правительство, блокирующее личную жизнь, интернет, нарушающее сохранность данных.
Все эти действия финансируются за счёт народа!