Виталий Аксенов - сольный концерт [2017, Chanson, DVB]

Ответить на тему
Статистика раздачи
Размер:  3,55 GB   |    Зарегистрирован:  1 год 2 месяца   |    Скачан:  0 раз

Полного источника не было: 1 час

 
   
 
 
Автор Сообщение

star21 ®

Пол: Женский

Стаж: 3 года 10 месяцев

Сообщений: 551989

Откуда: Екатеринбург

Создавать темы 24-Июн-2018 12:00

[Цитировать]

Виталий Аксенов - сольный концерт Страна: Россия
Жанр: Chanson
Продолжительность: 02:26:41
Год выпуска: 2017Описание: Сольный концерт Виталия Аксёнова, прошедший в городе Санкт-Петербург 12 декабря 2017 года в большом концертном зале "Октябрьский".Треклист:
1. Дороги.
2. Слухи.
3. Ты спроси у меня.
4. Вагончик.
5. Париж.
6. Взаймы.
7. Генерал.
8. Дядя Вова.
9. Ждёт она меня.
10. Разговор.
11. Золотые врата.
12. Мужское счастье.
13. Жаворонок.
14. Дядя Леша.
15. Пята Ахилеса.
16. Подарки.
17. Мама.
18. Дай мне всё понять.
19. Бодайбо.
20. Прощай, печаль.
21. Дин-дон.
22. Берега.
23. Волчье солнце.
24. Могильщик.
25. Царевна моя.
26. Золото.
27. Облака.
28. Ничего, ничего...Источник: собственный рипКачество: DVB
Контейнер: TS/M2TS
Видео кодек: H.264
Аудио кодек: MP2
Видео: 720x576 (@785x576) (4:3) AVC (H.264) Main@L3.0, ~3035kbps, 25fps, 0.293 bit/pixel
Аудио: Русский 48 kHz, MPEG Layer 2, 2 ch, ~256.00 kbps avg

MediaInfo

Complete name : M:\Торренты\Музон\Виталий Аксенов_Первый ряд.ts
Format : MPEG-TS
File size : 3.55 GiB
Duration : 2 h 26 min
Overall bit rate mode : Variable
Overall bit rate : 3 465 kb/sVideo
ID : 1451 (0x5AB)
Menu ID : 23360 (0x5B40)
Format : AVC
Format/Info : Advanced Video Codec
Format profile : Main@L3
Format settings : CABAC / 4 Ref Frames
Format settings, CABAC : Yes
Format settings, ReFrames : 4 frames
Format settings, GOP : M=4, N=24
Codec ID : 27
Duration : 2 h 26 min
Bit rate : 3 035 kb/s
Width : 720 pixels
Height : 576 pixels
Display aspect ratio : 4:3
Frame rate : 25.000 FPS
Standard : Component
Color space : YUV
Chroma subsampling : 4:2:0
Bit depth : 8 bits
Scan type : Interlaced
Scan type, store method : Separated fields
Scan order : Top Field First
Bits/(Pixel*Frame) : 0.293
Stream size : 3.11 GiB (88%)
Color range : Limited
Color primaries : BT.601 PAL
Transfer characteristics : BT.470 System B, BT.470 System G
Matrix coefficients : BT.470 System B, BT.470 System GAudio
ID : 1452 (0x5AC)
Menu ID : 23360 (0x5B40)
Format : MPEG Audio
Format version : Version 1
Format profile : Layer 2
Codec ID : 3
Duration : 2 h 26 min
Bit rate mode : Constant
Bit rate : 256 kb/s
Channel(s) : 2 channels
Sampling rate : 48.0 kHz
Frame rate : 41.667 FPS (1152 SPF)
Compression mode : Lossy
Stream size : 269 MiB (7%)
Language : Russian

Скриншоты


Чтобы скачать этот контент, Вам необходимо:
1. Скачать и установить торрент-клиент [клик для Windows], (для мобильного найдите на Play Маркет).
2. Кликнуть по [Скачать]


Внимание.
Если проверка ВЫ НЕ РОБОТ - не работает, значит Вы используете устаревший браузер.
Установите актуальный браузер и повторно кликните по [Скачать]
Безопасность: торрент-клиент разрешён АВ Касперского.

[asmlocator.ru].t543820.torrent 
Торрент: Зарегистрирован [ 2018-06-24 12:00 ] · EDCD13FF7DC737C54B6598A8E133792EEF0323CC

Скачать .torrent

Скачать

18 KB

Статус: проверено
Скачан: 0 раз
Размер: 3,55 GB
terms.php
[Профиль] [ЛС]
Показать сообщения:    
Ответить на тему

Текущее время: 22-Сен 05:35

Часовой пояс: UTC ± 0



Вы не можете начинать темы
Вы не можете отвечать на сообщения
Вы не можете редактировать свои сообщения
Вы не можете удалять свои сообщения
Вы не можете голосовать в опросах
Вы не можете прикреплять файлы к сообщениям
Вы можете скачивать файлы
Верим фактам, а не вранью Путина! Факт, что Правительство ведёт Россию к истреблению.
Так как численность населения падает, даже не смотря на приток эмигрантов!
Русская нация вымирает и вырождается, смешиваясь с эмигрантами!
Факт, что военных и граждан предприятий заставляют голосовать за партию Единая Россия и Путина
ПОД СТРАХОМ УВОЛЬНЕНИЯ!
Нам не нужно Правительство, блокирующее личную жизнь, интернет, нарушающее сохранность данных.
Все эти действия финансируются за счёт народа!