VA • CMT (Country Music Television) Music Awards [2018, Country, Pop, HDTV, 1080i]

Ответить на тему
Статистика раздачи
Размер:  28,28 GB   |    Зарегистрирован:  1 год 5 месяцев   |    Скачан:  0 раз

Полного источника не было: Никогда

 
   
 
 
Автор Сообщение

star21 ®

Пол: Женский

Стаж: 4 года 1 месяц

Сообщений: 551946

Откуда: Екатеринбург

Создавать темы 21-Июн-2018 07:35

[Цитировать]


CMT Music Awards 2018

feed
Жанр: Country, Pop Show
Продолжительность: 01:45:12
Год выпуска: 2018
Качество: HDTV
Разрешение видео/развертка: 1080i
Контейнер: TS
Видео кодек: H.264
Аудио кодек: MP2
Видео: MPEG4 Video (H264) 1920x1080 29.97fps 37.0 Mb/s
Аудио: MPEG Audio 48000Hz stereo 256kbps

Треклист

Jason Aldean - Drowns the Whiskey
The Backstreet Boys - Don't Go Breaking My Heart
Kelsea Ballerini - I Hate Love Songs
Dierks Bentley and Brothers Osborne - Burning Man
Luke Bryan - Sunrise, Sunburn, Sunset
Kelly Clarkson - American Woman
Dan + Shay - Tequila
Devin Dawson - All on Me
Russell Dickerson - Yours
Lindsay Ell - Criminal
Florida Georgia Line - Simple
Sam Hunt - Downtown's Dead
Lanco - Greatest Love Story
Little Big Town - Summer Fever
Carly Pearce - Hide the Wine
Darius Rucker, Jason Aldean, Luke Bryan and Charles Kelley - Straight to Hell
Blake Shelton - Turnin' Me On
Chris Stapleton - Millionaire
Carrie Underwood - Cry Pretty

Отчёт MediaInfo / BDInfo

GeneralID                             : 1 (0x1)Complete name                  : F:\CMT Music Awards 2018.tsFormat                         : MPEG-TSFile size                      : 28.3 GiBDuration                       : 1 h 45 minOverall bit rate mode          : VariableOverall bit rate               : 38.5 Mb/sVideoID                             : 308 (0x134)Menu ID                        : 1 (0x1)Format                         : AVCFormat/Info                    : Advanced Video CodecFormat profile                 : High@L4.1Format settings                : 3 Ref FramesFormat settings, CABAC         : NoFormat settings, ReFrames      : 3 framesFormat settings, GOP           : M=3, N=15Codec ID                       : 27Duration                       : 1 h 45 minBit rate mode                  : ConstantBit rate                       : 37.0 Mb/sWidth                          : 1 920 pixelsHeight                         : 1 080 pixelsDisplay aspect ratio           : 16:9Frame rate                     : 29.970 (30000/1001) FPSColor space                    : YUVChroma subsampling             : 4:2:0Bit depth                      : 8 bitsScan type                      : InterlacedScan type, store method        : Separated fieldsScan order                     : Top Field FirstBits/(Pixel*Frame)             : 0.595Stream size                    : 26.5 GiB (94%)Color range                    : LimitedColor primaries                : BT.709Transfer characteristics       : BT.709Matrix coefficients            : BT.709Audio #1ID                             : 256 (0x100)Menu ID                        : 1 (0x1)Format                         : MPEG AudioFormat version                 : Version 1Format profile                 : Layer 2Format settings                : Intensity Stereo + MS StereoCodec ID                       : 3Duration                       : 1 h 45 minBit rate mode                  : ConstantBit rate                       : 256 kb/sChannel(s)                     : 2 channelsSampling rate                  : 48.0 kHzFrame rate                     : 41.667 FPS (1152 SPF)Compression mode               : LossyStream size                    : 193 MiB (1%)Language                       : EnglishAudio #2ID                             : 257 (0x101)Menu ID                        : 1 (0x1)Format                         : MPEG AudioFormat version                 : Version 1Format profile                 : Layer 2Format settings                : Intensity Stereo + MS StereoCodec ID                       : 3Duration                       : 1 h 45 minBit rate mode                  : ConstantBit rate                       : 256 kb/sChannel(s)                     : 2 channelsSampling rate                  : 48.0 kHzFrame rate                     : 41.667 FPS (1152 SPF)Compression mode               : LossyStream size                    : 193 MiB (1%)Language                       : English

Скриншоты

Чтобы скачать этот контент, Вам необходимо:
1. Скачать и установить торрент-клиент [клик для Windows], (для мобильного найдите на Play Маркет).
2. Кликнуть по [Скачать]


Внимание.
Если проверка ВЫ НЕ РОБОТ - не работает, значит Вы используете устаревший браузер.
Установите актуальный браузер и повторно кликните по [Скачать]
Безопасность: торрент-клиент разрешён АВ Касперского.

[mail.asmlocator.ru].t542945.torrent 
Торрент: Зарегистрирован [ 2018-06-21 07:35 ] · A8B4E44423993CC1C2056B924D00517770FECDE4

Скачать .torrent

Скачать

71 KB

Статус: проверено
Скачан: 0 раз
Размер: 28,28 GB
terms.php
[Профиль] [ЛС]
Показать сообщения:    
Ответить на тему

Текущее время: 10-Дек 14:32

Часовой пояс: UTC ± 0



Вы не можете начинать темы
Вы не можете отвечать на сообщения
Вы не можете редактировать свои сообщения
Вы не можете удалять свои сообщения
Вы не можете голосовать в опросах
Вы не можете прикреплять файлы к сообщениям
Вы можете скачивать файлы
Верим фактам, а не вранью Путина! Факт, что Правительство ведёт Россию к истреблению.
Так как численность населения падает, даже не смотря на приток эмигрантов!
Русская нация вымирает и вырождается, смешиваясь с эмигрантами!
Факт, что военных и граждан предприятий заставляют голосовать за партию Единая Россия и Путина
ПОД СТРАХОМ УВОЛЬНЕНИЯ!
Нам не нужно Правительство, блокирующее личную жизнь, интернет, нарушающее сохранность данных.
Все эти действия финансируются за счёт народа!