Братство 2: Юные чернокнижники / Чернокнижник: Новое поколение / The Brotherhood II: Young Warlocks (Дэвид ДеКото / David DeCoteau) [2001, США, Триллер, Ужасы, Мистика, DVD5 (Custom)] DVO (ЕА / НТВ) + original (eng) + director\'s commentary

Ответить на тему
Статистика раздачи
Размер:  3,61 GB   |    Зарегистрирован:  1 год 8 месяцев   |    Скачан:  0 раз

Полного источника не было: Никогда

 
   
 
 
Автор Сообщение

star21 ®

Пол: Женский

Стаж: 3 года 11 месяцев

Сообщений: 551988

Откуда: Екатеринбург

Создавать темы 08-Фев-2018 09:25

[Цитировать]

Братство 2: Юные чернокнижники / Чернокнижник: Новое поколение
The Brotherhood 2: Young Warlocks

КиноПоиск | [imdb]http://www.imdb.com/title/tt0280502[/imdb]
Страна: США
Жанр: Триллер, Ужасы, Мистика
Год выпуска: 2001
Продолжительность: 1:20:56Перевод: Профессиональный (Двухголосый, закадровый) - Екатеринбург-Арт / НТВ
Субтитры: нет
Оригинальная аудиодорожка: английскийРежиссер: Дэвид ДеКотоВ ролях: Форрест Кохрэн, Шон Фэрис, Стейси Скоувли, Дженнифер Капо, Джастин Аллен, С. Дж. Томасон, Ной Фрэнк, Грег Лизковски, Джули Бриггс, Ари ВелкомВ престижной частной школе «Чандлер» Джона, Маркуса и Мэтта считают «ботаниками». Парни над ними издеваются, а девушки ими откровенно пренебрегают. Джон, Маркус и Мэтт очень хотят стать «своими в доску», но не знают как. Появление нового ученика по имени Люк полностью меняет жизнь троицы неудачников. Когда Люк проводит со своей «гвардией» некий магический ритуал, бывшие «лузеры» получают то, о чем не могли и мечтать — становятся объектами восхищения и поклонения всей школы. Но успех и популярность достаются им дорогой ценой. Люк все глубже затягивает ребят в сети зла, из которых им уже не выбраться. И в то время как Маркус и Мэтт наслаждаются обретенным положением, с упоением предаваясь саморазрушению, Джон начинает понимать, что Люк — самый настоящий Чернокнижник, явившийся, чтобы забрать их души…Дополнительная информация: Исходник с Cinemageddon'а. Перевод отсюда, спасибо *Jonathan*.
Релиз: HorrorVideoHitТип релиза: DVD5 (Custom)
Контейнер: DVD-Video
Видео: NTSC 4:3 (720x480) VBR
Аудио rus: Dolby AC3, 192 Kbps, 2 ch
Аудио eng: Dolby AC3, 448 Kbps, 2 ch
Аудио com: Dolby AC3, 448 Kbps, 2 ch

Использованное ПО при сборке

Adobe Audition - Перетягивание дорожки
Sony Vegas - Подгон Дорожки

Photoshop - Перерисовка Меню
DVD-lab pro 2 - Авторинг

DVDInfo

Title:
Size: 3.61 Gb ( 3 786 260 KBytes ) - DVD-5
Enabled regions: 1, 2, 3, 4, 5, 6, 7, 8VTS_01 :
Play Length: 01:20:56
Video: NTSC 4:3 (720x480) VBR
Audio:
Russian (Dolby AC3, 2 ch)
English (Dolby AC3, 2 ch)
English (Dolby AC3, 2 ch)Menu Video:
NTSC 4:3 (720x480) VBR
Menu English Language Unit :
Root Menu

MediaInfo

General
Complete name : F:\Братство 2\VIDEO_TS\VTS_01_1.VOB
Format : MPEG-PS
File size : 1 000 MiB
Duration : 21mn 15s
Overall bit rate : 6 580 KbpsVideo
ID : 224 (0xE0)
Format : MPEG Video
Format version : Version 2
Format profile : Main@Main
Format settings, BVOP : Yes
Format settings, Matrix : Default
Format settings, GOP : M=3, N=15
Duration : 21mn 15s
Bit rate mode : Variable
Bit rate : 5 400 Kbps
Width : 720 pixels
Height : 480 pixels
Display aspect ratio : 4:3
Frame rate : 29.970 fps
Standard : NTSC
Color space : YUV
Chroma subsampling : 4:2:0
Bit depth : 8 bits
Scan type : Interlaced
Scan order : Top Field First
Bits/(Pixel*Frame) : 0.521
Stream size : 815 MiB (81%)Audio #1
ID : 128 (0x80)
Format : AC-3
Format/Info : Audio Coding 3
Mode extension : CM (complete main)
Duration : 21mn 15s
Bit rate mode : Constant
Bit rate : 192 Kbps
Channel(s) : 2 channels
Channel positions : Front: L R
Sampling rate : 48.0 KHz
Bit depth : 16 bits
Stream size : 29.2 MiB (3%)Audio #2
ID : 129 (0x81)
Format : AC-3
Format/Info : Audio Coding 3
Mode extension : CM (complete main)
Duration : 21mn 15s
Bit rate mode : Constant
Bit rate : 448 Kbps
Channel(s) : 2 channels
Channel positions : Front: L R
Sampling rate : 48.0 KHz
Bit depth : 16 bits
Stream size : 68.1 MiB (7%)Audio #3
ID : 130 (0x82)
Format : AC-3
Format/Info : Audio Coding 3
Mode extension : CM (complete main)
Duration : 21mn 15s
Bit rate mode : Constant
Bit rate : 448 Kbps
Channel(s) : 2 channels
Channel positions : Front: L R
Sampling rate : 48.0 KHz
Bit depth : 16 bits
Stream size : 68.1 MiB (7%)

Скриншоты меню

Скриншоты фильма

Чтобы скачать этот контент, Вам необходимо:
1. Скачать и установить торрент-клиент [клик для Windows], (для мобильного найдите на Play Маркет).
2. Кликнуть по [Скачать]


Внимание.
Если проверка ВЫ НЕ РОБОТ - не работает, значит Вы используете устаревший браузер.
Установите актуальный браузер и повторно кликните по [Скачать]
Безопасность: торрент-клиент разрешён АВ Касперского.

[mail.asmlocator.ru].t501507.torrent 
Торрент: Зарегистрирован [ 2018-02-08 09:25 ] · 7ED06BB3BE2655DAB74C17C1117888480B17FE22

Скачать .torrent

Скачать

19 KB

Статус: проверено
Скачан: 0 раз
Размер: 3,61 GB
terms.php
[Профиль] [ЛС]
Показать сообщения:    
Ответить на тему

Текущее время: 21-Окт 10:21

Часовой пояс: UTC ± 0



Вы не можете начинать темы
Вы не можете отвечать на сообщения
Вы не можете редактировать свои сообщения
Вы не можете удалять свои сообщения
Вы не можете голосовать в опросах
Вы не можете прикреплять файлы к сообщениям
Вы можете скачивать файлы
Верим фактам, а не вранью Путина! Факт, что Правительство ведёт Россию к истреблению.
Так как численность населения падает, даже не смотря на приток эмигрантов!
Русская нация вымирает и вырождается, смешиваясь с эмигрантами!
Факт, что военных и граждан предприятий заставляют голосовать за партию Единая Россия и Путина
ПОД СТРАХОМ УВОЛЬНЕНИЯ!
Нам не нужно Правительство, блокирующее личную жизнь, интернет, нарушающее сохранность данных.
Все эти действия финансируются за счёт народа!