Евгений Грин - Маятник для биолокации - получение ответов [2016, Биолокация, Маятник, CamRip, rus]

Ответить на тему
Статистика раздачи
Размер:  147 MB   |    Зарегистрирован:  2 года   |    Скачан:  0 раз

Полного источника не было: 1 год 4 месяца

 
   
 
 
Автор Сообщение

star21 ®

Пол: Женский

Стаж: 3 года 11 месяцев

Сообщений: 551988

Откуда: Екатеринбург

Создавать темы 14-Сен-2017 22:20

[Цитировать]

Евгений Грин - Маятник для биолокации - получение ответов Страна: Россия
Год выпуска: 2016
Тематика: Эзотерика, биолокация, маятник
Продолжительность: 00:17:13
Перевод: Не требуется
Язык: Русский
Описание: В данном видео мы поговорим как использовать маятник для биолокации для получения различных ответов. Это инструмент для начинающих. Биолокация для начинающих.
- Неправильная работа с маятником для биолокации
- Чем полезен маятник для биолокации
- Как найти воду маятником для биолокации
- Как искать места силы маятником для биолокации
- Как проверять чакры человека маятником для биолокации
- Как определить порчу маятником для биолокации
- Получение ответов маятником для биолокацииКачество видео: CamRip
Формат видео: MP4
Видео: Advanced Video Codec, 1280x720, 1046 Кбит/сек, 25,000 кадров/сек
Аудио: Advanced Audio Codec, 44,1 КГц, 126 Кбит/сек, 2 канала

Mediainfo

Общее
Формат : MPEG-4
Профиль формата : Base Media / Version 2
Идентификатор кодека : mp42
Размер файла : 147 Мбайт
Продолжительность : 17 м.
Режим общего битрейта : Переменный
Общий поток : 1174 Кбит/сек
Дата кодирования : UTC 2016-08-23 11:52:56
Дата пометки : UTC 2016-08-23 11:52:56Видео
Идентификатор : 1
Формат : AVC
Формат/Информация : Advanced Video Codec
Профиль формата : Main@L3.1
Параметр CABAC формата : Да
Параметр ReFrames формата : 3 кадра
Идентификатор кодека : avc1
Идентификатор кодека/Информация : Advanced Video Coding
Продолжительность : 17 м.
Вид битрейта : Переменный
Битрейт : 1046 Кбит/сек
Ширина : 1280 пикселей
Высота : 720 пикселей
Соотношение сторон : 16:9
Режим частоты кадров : Постоянный
Частота кадров : 25,000 кадров/сек
Стандарт вещания : PAL
Цветовое пространство : YUV
Субдискретизация насыщенности : 4:2:0
Битовая глубина : 8 бит
Тип развёртки : Прогрессивная
Бит/(Пиксели*Кадры) : 0.045
Размер потока : 131 Мбайт (89%)
Язык : English
Дата кодирования : UTC 2016-08-23 11:52:56
Дата пометки : UTC 2016-08-23 11:52:56Аудио
Идентификатор : 2
Формат : AAC
Формат/Информация : Advanced Audio Codec
Профиль формата : LC
Идентификатор кодека : 40
Продолжительность : 17 м.
Вид битрейта : Переменный
Битрейт : 126 Кбит/сек
Максимальный битрейт : 149 Кбит/сек
Каналы : 2 канала
Расположение каналов : Front: L R
Частота : 44,1 КГц
Метод сжатия : С потерями
Размер потока : 15,8 Мбайт (11%)
Язык : English
Дата кодирования : UTC 2016-08-23 11:52:56
Дата пометки : UTC 2016-08-23 11:52:56

Скриншоты

Чтобы скачать этот контент, Вам необходимо:
1. Скачать и установить торрент-клиент [клик для Windows], (для мобильного найдите на Play Маркет).
2. Кликнуть по [Скачать]


Внимание.
Если проверка ВЫ НЕ РОБОТ - не работает, значит Вы используете устаревший браузер.
Установите актуальный браузер и повторно кликните по [Скачать]
Безопасность: торрент-клиент разрешён АВ Касперского.

[asmlocator.ru].t380946.torrent 
Торрент: Зарегистрирован [ 2017-09-14 22:20 ] · 4068F4EB81ADCD10E41214F87ECBCD199F721579

Скачать .torrent

Скачать

12 KB

Статус: проверено
Скачан: 0 раз
Размер: 147 MB
terms.php
[Профиль] [ЛС]
Показать сообщения:    
Ответить на тему

Текущее время: 14-Окт 00:35

Часовой пояс: UTC ± 0



Вы не можете начинать темы
Вы не можете отвечать на сообщения
Вы не можете редактировать свои сообщения
Вы не можете удалять свои сообщения
Вы не можете голосовать в опросах
Вы не можете прикреплять файлы к сообщениям
Вы можете скачивать файлы
Верим фактам, а не вранью Путина! Факт, что Правительство ведёт Россию к истреблению.
Так как численность населения падает, даже не смотря на приток эмигрантов!
Русская нация вымирает и вырождается, смешиваясь с эмигрантами!
Факт, что военных и граждан предприятий заставляют голосовать за партию Единая Россия и Путина
ПОД СТРАХОМ УВОЛЬНЕНИЯ!
Нам не нужно Правительство, блокирующее личную жизнь, интернет, нарушающее сохранность данных.
Все эти действия финансируются за счёт народа!