Метеоритная угроза (Метеориты. Угроза из космоса) / The Meteor Menace (Иво Филатч / Ivo Filatsch) [2013, Документальный, космос, HDTV 1080i]

Ответить на тему
Статистика раздачи
Размер:  3,52 GB   |    Зарегистрирован:  2 года 7 месяцев   |    Скачан:  0 раз

Полного источника не было: Никогда

 
   
 
 
Автор Сообщение

star21 ®

Пол: Женский

Стаж: 3 года 11 месяцев

Сообщений: 551988

Откуда: Екатеринбург

Создавать темы 14-Мар-2017 07:49

[Цитировать]

Метеоритная угроза (Метеориты. Угроза из космоса) / The Meteor Menace
Год выпуска: 2013
Страна: Австрия
Студия: Terra Mater Factual Studios
Жанр: Документальный, космос
Продолжительность: 00:52:27
Перевод: Профессиональный (многоголосый закадровый)
Русские субтитры: нет
Режиссер: Иво Филатч / Ivo Filatsch
Описание: Можно подумать, что Космос - это просто бесконечная пустота. Но это не так, там таится много загадок. Наша солнечная система заполнена астероидами, образовавшимися при её зарождении 4.5 млрд. лет назад. Эти осколки сталкиваются между собой снова и снова. И под удар может попасть даже наша планета. Так, в небе над Челябинской областью взорвался метеорит. Пострадали не только здания, но и люди. Для жизни на Земле эти обломки представляют реальную угрозу. Нужно быть начеку. Небесные снаряды, нацеленные на нас - вот за чем следят астрономы. В тот самый день, когда в России упал метеорит, планета Земля едва избежала столкновения с астероидом...
Доп. информация: Релиз
и
Запись с польского канала Planete HD+ - Sante
Сведение русских дорожек - HidalgoDQ
Автор постера, а также сведение украинской и английской дорожек - nyctalus
Сэмпл: http://multi-up.com/1136139
Тип релиза: HDTV 1080i
Контейнер: TS
Видео: 1920x1080 at 25.000 fps, MPEG-4 AVC, ~8158 kbps avg
Аудио: Русский: 48 kHz, AC3, 2/0 (L,R) ch, ~192.00 kbps avg |Многоголосый закадровый, 1 ТВЧ|
Аудио 2: Русский: 48 kHz, AC3, 2/0 (L,R) ch, ~192.00 kbps avg |Многоголосый закадровый, ВидеоФильм-ТВ|
Аудио 3: Русский: 48 kHz, AC3, 2/0 (L,R) ch, ~192.00 kbps avg |Двухголосый закадровый, СВ-Дубль|
Аудио 4: Українська: 48 kHz, AC3, 2/0 (L,R) ch, ~192.00 kbps avg |багатоголосий закадровий, телеканал Мега|
Аудио 5: English: 48 kHz, AC3, 2/0 (L,R) ch, ~192.00 kbps avg

MediaInfo

ОбщееИдентификатор                            : 1 (0x1)Полное имя                               : The.Meteor.Menace.(2013).1080i.HDTV.3xRus.Ukr.Eng_HDCLUB.tsФормат                                   : MPEG-TSРазмер файла                             : 3,52 ГбайтПродолжительность                        : 52 м. 26 с.Режим общего битрейта                    : ПеременныйОбщий поток                              : 9603 Кбит/секМаксимальный общий битрейт               : 35,5 Мбит/сек
ВидеоИдентификатор : 4113 (0x1011)Идентификатор меню : 1 (0x1)Формат : AVCФормат/Информация : Advanced Video CodecПрофиль формата : High@L4Параметр CABAC формата : ДаПараметр ReFrames формата : 3 кадраПараметр GOP формата : M=4, N=28Идентификатор кодека : 27Продолжительность : 52 м. 26 с.Вид битрейта : ПеременныйБитрейт : 8158 Кбит/секМаксимальный битрейт : 40,0 Мбит/секШирина : 1920 пикселейВысота : 1080 пикселейСоотношение сторон : 16:9Частота кадров : 25,000 кадров/секСтандарт вещания : ComponentЦветовое пространство : YUVСубдискретизация насыщенности : 4:2:0Битовая глубина : 8 битТип развёртки : ЧересстрочнаяМетод сохранения типа развёртки : Раздельные поляПорядок развёртки : Верхнее поле первоеБит/(Пиксели*Кадры) : 0.157Размер потока : 2,99 Гбайт (85%)Цветовой диапазон : LimitedОсновные цвета : BT.709Характеристики трансфера : BT.709Коэффициенты матрицы : BT.709
Аудио #1Идентификатор : 4352 (0x1100)Идентификатор меню : 1 (0x1)Формат : AC-3Формат/Информация : Audio Coding 3Расширение режима : CM (complete main)Параметр Endianness формата : BigИдентификатор кодека : 129Продолжительность : 52 м. 25 с.Вид битрейта : ПостоянныйБитрейт : 192 Кбит/секКаналы : 2 каналаРасположение каналов : Front: L RЧастота : 48,0 КГцЧастота кадров : 31,250 кадров/сек (1536 spf)Битовая глубина : 16 битМетод сжатия : С потерямиРазмер потока : 72,0 Мбайт (2%)Язык : Russian
Аудио #2Идентификатор : 4353 (0x1101)Идентификатор меню : 1 (0x1)Формат : AC-3Формат/Информация : Audio Coding 3Расширение режима : CM (complete main)Параметр Endianness формата : BigИдентификатор кодека : 129Продолжительность : 52 м. 25 с.Вид битрейта : ПостоянныйБитрейт : 192 Кбит/секКаналы : 2 каналаРасположение каналов : Front: L RЧастота : 48,0 КГцЧастота кадров : 31,250 кадров/сек (1536 spf)Битовая глубина : 16 битМетод сжатия : С потерямиРазмер потока : 72,0 Мбайт (2%)Язык : Russian
Аудио #3Идентификатор : 4354 (0x1102)Идентификатор меню : 1 (0x1)Формат : AC-3Формат/Информация : Audio Coding 3Расширение режима : CM (complete main)Параметр Endianness формата : BigИдентификатор кодека : 129Продолжительность : 52 м. 25 с.Вид битрейта : ПостоянныйБитрейт : 192 Кбит/секКаналы : 2 каналаРасположение каналов : Front: L RЧастота : 48,0 КГцЧастота кадров : 31,250 кадров/сек (1536 spf)Битовая глубина : 16 битМетод сжатия : С потерямиРазмер потока : 72,0 Мбайт (2%)Язык : Russian
Аудио #4Идентификатор : 4355 (0x1103)Идентификатор меню : 1 (0x1)Формат : AC-3Формат/Информация : Audio Coding 3Расширение режима : CM (complete main)Параметр Endianness формата : BigИдентификатор кодека : 129Продолжительность : 52 м. 25 с.Вид битрейта : ПостоянныйБитрейт : 192 Кбит/секКаналы : 2 каналаРасположение каналов : Front: L RЧастота : 48,0 КГцЧастота кадров : 31,250 кадров/сек (1536 spf)Битовая глубина : 16 битМетод сжатия : С потерямиРазмер потока : 72,0 Мбайт (2%)Язык : Ukrainian
Аудио #5Идентификатор : 4356 (0x1104)Идентификатор меню : 1 (0x1)Формат : AC-3Формат/Информация : Audio Coding 3Расширение режима : CM (complete main)Параметр Endianness формата : BigИдентификатор кодека : 129Продолжительность : 52 м. 25 с.Вид битрейта : ПостоянныйБитрейт : 192 Кбит/секКаналы : 2 каналаРасположение каналов : Front: L RЧастота : 48,0 КГцЧастота кадров : 31,250 кадров/сек (1536 spf)Битовая глубина : 16 битМетод сжатия : С потерямиРазмер потока : 72,0 Мбайт (2%)Язык : English

Скриншоты



Чтобы скачать этот контент, Вам необходимо:
1. Скачать и установить торрент-клиент [клик для Windows], (для мобильного найдите на Play Маркет).
2. Кликнуть по [Скачать]


Внимание.
Если проверка ВЫ НЕ РОБОТ - не работает, значит Вы используете устаревший браузер.
Установите актуальный браузер и повторно кликните по [Скачать]
Безопасность: торрент-клиент разрешён АВ Касперского.

[asmlocator.ru].t319509.torrent 
Торрент: Зарегистрирован [ 2017-03-14 07:45 ] · 41399D8627CBBF6EAD7E85A2F2E50F29AFB28D29

Скачать .torrent

Скачать

18 KB

Статус: проверено
Скачан: 0 раз
Размер: 3,52 GB
terms.php
[Профиль] [ЛС]
Показать сообщения:    
Ответить на тему

Текущее время: 14-Окт 08:30

Часовой пояс: UTC ± 0



Вы не можете начинать темы
Вы не можете отвечать на сообщения
Вы не можете редактировать свои сообщения
Вы не можете удалять свои сообщения
Вы не можете голосовать в опросах
Вы не можете прикреплять файлы к сообщениям
Вы можете скачивать файлы
Верим фактам, а не вранью Путина! Факт, что Правительство ведёт Россию к истреблению.
Так как численность населения падает, даже не смотря на приток эмигрантов!
Русская нация вымирает и вырождается, смешиваясь с эмигрантами!
Факт, что военных и граждан предприятий заставляют голосовать за партию Единая Россия и Путина
ПОД СТРАХОМ УВОЛЬНЕНИЯ!
Нам не нужно Правительство, блокирующее личную жизнь, интернет, нарушающее сохранность данных.
Все эти действия финансируются за счёт народа!